Поиск

(Pop/Funk) [CDM] Natalie Cole - Pink Cadillac (Maxi CD Single) - 1988, FLAC (tracks+.cue), lossless

(Pop/Funk) [CDM] Natalie Cole - Pink Cadillac (Maxi CD Single) - 1988, FLAC (tracks+.cue), lossless
Треклист:
Natalie Cole - Pink Cadillac
Жанр: Pop/Funk
Носитель: CDM
Страна-производитель диска (релиза): UK
Год издания: 1988
Издатель (лейбл): EMI-Manhattan Records
Номер по каталогу: CD MT 35
Аудиокодек: FLAC (*.flac)
Тип рипа: tracks+.cue
Битрейт аудио: lossless
Продолжительность: 00:19:51
Источник (релизер): own rip
Наличие сканов в содержимом раздачи: нет

1. Natalie Cole - Pink Cadillac (7'' Version) (4:19)
2. Natalie Cole - I Wanna Be That Woman (7'' Version) (4:19)
3. Natalie Cole - Jump Start (Radio Edit) (4:23)
4. Natalie Cole - Pink Cadillac (Club Vocal) (6:50)
 
Лог создания рипа
Exact Audio Copy V1.0 beta 3 from 29. August 2011
EAC extraction logfile from 2. January 2016, 21:41
Natalie Cole / Pink Cadillac (Maxi CD Single)
Used drive : TSSTcorpCDDVDW SN-208BB Adapter: 0 ID: 0
Read mode : Secure
Utilize accurate stream : Yes
Defeat audio cache : Yes
Make use of C2 pointers : No
Read offset correction : 6
Overread into Lead-In and Lead-Out : No
Fill up missing offset samples with silence : Yes
Delete leading and trailing silent blocks : No
Null samples used in CRC calculations : Yes
Used interface : Native Win32 interface for Win NT & 2000
Gap handling : Appended to previous track
Used output format : User Defined Encoder
Selected bitrate : 1024 kBit/s
Quality : High
Add ID3 tag : No
Command line compressor : C:\Program Files (x86)\Exact Audio Copy\Flac\flac.exe
Additional command line options : -8 -V -T "artist=%artist%" -T "title=%title%" -T "album=%albumtitle%" -T "date=%year%" -T "tracknumber=%tracknr%" -T "genre=%genre%" %source%
TOC of the extracted CD
Track | Start | Length | Start sector | End sector
---------------------------------------------------------
1 | 0:00.00 | 4:19.07 | 0 | 19431
2 | 4:19.07 | 4:18.48 | 19432 | 38829
3 | 8:37.55 | 4:23.02 | 38830 | 58556
4 | 13:00.57 | 6:50.48 | 58557 | 89354
Track 1
Filename E:\Torrent\Natalie Cole - Pink Cadillac (Maxi CD Single)\01 Pink Cadillac (7'' Version).wav
Pre-gap length 0:00:02.00
Peak level 100.0 %
Extraction speed 1.8 X
Track quality 100.0 %
Test CRC 648FE6B3
Copy CRC 648FE6B3
Accurately ripped (confidence 6) [74D45B07] (AR v2)
Copy OK
Track 2
Filename E:\Torrent\Natalie Cole - Pink Cadillac (Maxi CD Single)\02 I Wanna Be That Woman (7'' Version).wav
Pre-gap length 0:00:02.70
Peak level 100.0 %
Extraction speed 1.8 X
Track quality 99.9 %
Test CRC F438EEDE
Copy CRC F438EEDE
Accurately ripped (confidence 6) [4CD9D3A5] (AR v2)
Copy OK
Track 3
Filename E:\Torrent\Natalie Cole - Pink Cadillac (Maxi CD Single)\03 Jump Start (Radio Edit).wav
Pre-gap length 0:00:03.50
Peak level 100.0 %
Extraction speed 2.2 X
Track quality 100.0 %
Test CRC 769F494C
Copy CRC 769F494C
Accurately ripped (confidence 6) [1F5DB9BA] (AR v2)
Copy OK
Track 4
Filename E:\Torrent\Natalie Cole - Pink Cadillac (Maxi CD Single)\04 Pink Cadillac (Club Vocal).wav
Pre-gap length 0:00:03.50
Peak level 100.0 %
Extraction speed 2.6 X
Track quality 100.0 %
Test CRC 2A28FC9F
Copy CRC 2A28FC9F
Accurately ripped (confidence 6) [761011D4] (AR v2)
Copy OK
All tracks accurately ripped
No errors occurred
End of status report
==== Log checksum 2179BFFCFF8F0A917197814C6D5EBF7C31D73EA6513E8EFA44D36544094D724C ====
 
Содержание индексной карты (.CUE)
REM GENRE R&B
REM DATE 1988
REM DISCID 2B04A704
REM COMMENT "ExactAudioCopy v1.0b3"
PERFORMER "Natalie Cole"
TITLE "Pink Cadillac (Maxi CD Single)"
FILE "01 Pink Cadillac (7'' Version).wav" WAVE
TRACK 01 AUDIO
TITLE "Pink Cadillac (7'' Version)"
PERFORMER "Natalie Cole"
INDEX 01 00:00:00
TRACK 02 AUDIO
TITLE "I Wanna Be That Woman (7'' Version)"
PERFORMER "Natalie Cole"
INDEX 00 04:16:12
FILE "02 I Wanna Be That Woman (7'' Version).wav" WAVE
INDEX 01 00:00:00
TRACK 03 AUDIO
TITLE "Jump Start (Radio Edit)"
PERFORMER "Natalie Cole"
INDEX 00 04:14:73
FILE "03 Jump Start (Radio Edit).wav" WAVE
INDEX 01 00:00:00
TRACK 04 AUDIO
TITLE "Pink Cadillac (Club Vocal)"
PERFORMER "Natalie Cole"
INDEX 00 04:19:27
FILE "04 Pink Cadillac (Club Vocal).wav" WAVE
INDEX 01 00:00:00
Приватный:
Нет (DHT включён)
Размер:
128.51 Мб (134,751,784 байт) » файлов: 7
Участники:
0 раздают, 0 качают (0 участников всего)
Внешние участники:
2 раздают, 1 качают (3 участников всего) [ Обновить ]
Есть вопросы - пишите личное сообщение пользователю M0p94ok.
09:19
61
Нет комментариев. Ваш будет первым!