Поиск

(Pop/Funk) [CDM] Natalie Cole - Jump Start (Maxi CD Single) - 1988, FLAC (tracks+.cue), lossless

(Pop/Funk) [CDM] Natalie Cole - Jump Start (Maxi CD Single) - 1988, FLAC (tracks+.cue), lossless
Треклист:
Natalie Cole - Jump Start
Жанр: Pop/Funk
Носитель: CDM
Страна-производитель диска (релиза): UK
Год издания: 1988
Издатель (лейбл): EMI-Manhattan Records
Номер по каталогу: CD MT 50
Аудиокодек: FLAC (*.flac)
Тип рипа: tracks+.cue
Битрейт аудио: lossless
Продолжительность: 00:19:44
Источник (релизер): own rip
Наличие сканов в содержимом раздачи: нет

1. Natalie Cole - Jump Start (Radio Edit) (4:21)
2. Natalie Cole - I Wanna Be That Woman (12'' Version) (5:21)
3. Natalie Cole - This Will Be (2:50)
4. Natalie Cole - Jump Start (Dance Mix) (7:12)
 
Лог создания рипа
Exact Audio Copy V1.0 beta 3 from 29. August 2011
EAC extraction logfile from 2. January 2016, 20:58
Natalie Cole / Jump Start (Maxi CD Single)
Used drive : TSSTcorpCDDVDW SN-208BB Adapter: 0 ID: 0
Read mode : Secure
Utilize accurate stream : Yes
Defeat audio cache : Yes
Make use of C2 pointers : No
Read offset correction : 6
Overread into Lead-In and Lead-Out : No
Fill up missing offset samples with silence : Yes
Delete leading and trailing silent blocks : No
Null samples used in CRC calculations : Yes
Used interface : Native Win32 interface for Win NT & 2000
Gap handling : Appended to previous track
Used output format : User Defined Encoder
Selected bitrate : 1024 kBit/s
Quality : High
Add ID3 tag : No
Command line compressor : C:\Program Files (x86)\Exact Audio Copy\Flac\flac.exe
Additional command line options : -8 -V -T "artist=%artist%" -T "title=%title%" -T "album=%albumtitle%" -T "date=%year%" -T "tracknumber=%tracknr%" -T "genre=%genre%" %source%
TOC of the extracted CD
Track | Start | Length | Start sector | End sector
---------------------------------------------------------
1 | 0:00.33 | 4:21.35 | 33 | 19642
2 | 4:21.68 | 5:21.35 | 19643 | 43752
3 | 9:43.28 | 2:50.22 | 43753 | 56524
4 | 12:33.50 | 7:11.73 | 56525 | 88922
Track 1
Filename E:\Torrent\Natalie Cole - Jump Start (Maxi CD Single)\01 Jump Start (Radio Edit).wav
Pre-gap length 0:00:02.33
Peak level 94.6 %
Extraction speed 1.9 X
Track quality 100.0 %
Test CRC 36B9B966
Copy CRC 36B9B966
Accurately ripped (confidence 1) [55BC94A6] (AR v2)
Copy OK
Track 2
Filename E:\Torrent\Natalie Cole - Jump Start (Maxi CD Single)\02 I Wanna Be That Woman (12'' Version).wav
Pre-gap length 0:00:00.43
Peak level 97.1 %
Extraction speed 2.2 X
Track quality 100.0 %
Test CRC 6B94A30D
Copy CRC 6B94A30D
Accurately ripped (confidence 1) [7D2E3DC4] (AR v2)
Copy OK
Track 3
Filename E:\Torrent\Natalie Cole - Jump Start (Maxi CD Single)\03 This Will Be.wav
Pre-gap length 0:00:00.55
Peak level 100.0 %
Extraction speed 1.9 X
Track quality 99.9 %
Test CRC 18DFA84B
Copy CRC 18DFA84B
Accurately ripped (confidence 1) [70D17B1E] (AR v2)
Copy OK
Track 4
Filename E:\Torrent\Natalie Cole - Jump Start (Maxi CD Single)\04 Jump Start (Dance Mix).wav
Pre-gap length 0:00:00.65
Peak level 99.9 %
Extraction speed 2.5 X
Track quality 99.9 %
Test CRC B902AAD5
Copy CRC B902AAD5
Accurately ripped (confidence 1) [AEF1F131] (AR v2)
Copy OK
All tracks accurately ripped
No errors occurred
End of status report
==== Log checksum 94341E30F3518CB4EBC58A4305B5546B93AEB1A5D8C460BB446A425E0FECE62D ====
 
Содержание индексной карты (.CUE)
REM GENRE Pop
REM DATE 1988
REM DISCID 3004A104
REM COMMENT "ExactAudioCopy v1.0b3"
CATALOG 0000000000000
PERFORMER "Natalie Cole"
TITLE "Jump Start (Maxi CD Single)"
FILE "01 Jump Start (Radio Edit).wav" WAVE
TRACK 01 AUDIO
TITLE "Jump Start (Radio Edit)"
PERFORMER "Natalie Cole"
PREGAP 00:00:33
INDEX 01 00:00:00
TRACK 02 AUDIO
TITLE "I Wanna Be That Woman (12'' Version)"
PERFORMER "Natalie Cole"
INDEX 00 04:20:67
FILE "02 I Wanna Be That Woman (12'' Version).wav" WAVE
INDEX 01 00:00:00
TRACK 03 AUDIO
TITLE "This Will Be"
PERFORMER "Natalie Cole"
INDEX 00 05:20:55
FILE "03 This Will Be.wav" WAVE
INDEX 01 00:00:00
TRACK 04 AUDIO
TITLE "Jump Start (Dance Mix)"
PERFORMER "Natalie Cole"
INDEX 00 02:49:32
FILE "04 Jump Start (Dance Mix).wav" WAVE
INDEX 01 00:00:00
Приватный:
Нет (DHT включён)
Размер:
125.20 Мб (131,285,396 байт) » файлов: 7
Участники:
0 раздают, 0 качают (0 участников всего)
Внешние участники:
3 раздают, 1 качают (4 участников всего) [ Обновить ]
Есть вопросы - пишите личное сообщение пользователю M0p94ok.
09:19
59
Нет комментариев. Ваш будет первым!