Поиск

(Soul/Funk) The O'Jays - The Very Best Of (1972-1984) - 1998, FLAC (image+.cue), lossless

Треклист:
The O'Jays - The Very Best Of (1972-1984)
Жанр: Soul/Funk
Год выпуска диска: 1998
Производитель диска: UK
Аудио кодек: FLAC
Тип рипа: image+.cue
Битрейт аудио: lossless
Продолжительность: 01:17:54
Трэклист:
01 - Backstabbers
02 - Love Train
03 - I Love Music
04 - Darlin' Darlin' Baby (Sweet, Tender Love)
05 - Used Ta Be My Girl
06 - Brandy
07 - Now That We Found Love
08 - Put Our Heads Together
09 - Message In Our Music
10 - Sing A Happy Song
11 - Extraordinary Girl
12 - Give The People What They Want
13 - For The Love Of Money
14 - 992 Arguments
15 - Time To Get Down
16 - Livin' For The Weekend
17 - Looky, Looky (Look At Me Girl)
18 - One Night Affair
19 - Deeper (In Love With You)
20 - Don't Call Me Brother
21 - Love Train (extended version)
 
EAC log
Exact Audio Copy V0.99 prebeta 4 from 23. January 2008
EAC extraction logfile from 5. November 2008, 0:01
The O'Jays / The Very Best Of
Used drive : LITE-ON CD-RW SOHR-5238S Adapter: 1 ID: 1
Read mode : Secure
Utilize accurate stream : Yes
Defeat audio cache : Yes
Make use of C2 pointers : No
Read offset correction : 6
Overread into Lead-In and Lead-Out : No
Fill up missing offset samples with silence : Yes
Delete leading and trailing silent blocks : No
Null samples used in CRC calculations : Yes
Used interface : Installed external ASPI interface
Used output format : Internal WAV Routines
Sample format : 44.100 Hz; 16 Bit; Stereo
TOC of the extracted CD
Track | Start | Length | Start sector | End sector
---------------------------------------------------------
1 | 0:00.00 | 3:05.57 | 0 | 13931
2 | 3:05.57 | 2:58.13 | 13932 | 27294
3 | 6:03.70 | 3:36.62 | 27295 | 43556
4 | 9:40.57 | 3:04.23 | 43557 | 57379
5 | 12:45.05 | 3:20.25 | 57380 | 72404
6 | 16:05.30 | 3:34.55 | 72405 | 88509
7 | 19:40.10 | 3:10.72 | 88510 | 102831
8 | 22:51.07 | 3:36.23 | 102832 | 119054
9 | 26:27.30 | 3:23.00 | 119055 | 134279
10 | 29:50.30 | 3:36.32 | 134280 | 150511
11 | 33:26.62 | 5:18.55 | 150512 | 174416
12 | 38:45.42 | 4:12.48 | 174417 | 193364
13 | 42:58.15 | 3:50.37 | 193365 | 210651
14 | 46:48.52 | 2:24.38 | 210652 | 221489
15 | 49:13.15 | 2:52.67 | 221490 | 234456
16 | 52:06.07 | 2:53.15 | 234457 | 247446
17 | 54:59.22 | 2:46.10 | 247447 | 259906
18 | 57:45.32 | 2:19.08 | 259907 | 270339
19 | 60:04.40 | 2:39.12 | 270340 | 282276
20 | 62:43.52 | 8:55.10 | 282277 | 322411
21 | 71:38.62 | 6:15.68 | 322412 | 350604
Range status and errors
Selected range
Filename I:\share\OJ\The O'Jays - The Very Best Of.wav
Peak level 95.5 %
Range quality 100.0 %
Test CRC CFA6085E
Copy CRC CFA6085E
Copy OK
No errors occurred
End of status report
Приватный:
Нет (DHT включён)
Размер:
505.41 Мб (529,959,502 байт) » файлов: 19
Участники:
0 раздают, 0 качают (0 участников всего)
Внешние участники:
1 раздают, 0 качают (1 участников всего) [ Обновить ]
Никого нет на раздаче - пишите личное сообщение M0p94ok
No seeders - write personal message to M0p94ok
02:12
19
Нет комментариев. Ваш будет первым!