Поиск

(Soul) The Temptations - Wish It Would Rain & In A Mellow Mood (1968) - 2002, FLAC (tracks+.cue), lossless

Треклист:
The Temptations - Wish It Would Rain & In A Mellow Mood (1968)
Жанр: Soul
Год выпуска диска: 2002
Аудио кодек: FLAC
Тип рипа: tracks+.cue
Битрейт аудио: lossless
Продолжительность: 01:12:01
Трэклист:
 
Трэклист
1. I Could Never Love Another (After Loving You) 3:3613. Hello, Young lovers 3:00 2. Cindy 3:0714. A Taste Of Honey 2:08 3. I Wish It Would Rain 2:4515. For Once In My Life 3:08 4. Please Return Your Love To Me 2:2616. Somewhere 4:19 5. Fan The Flame 2:4317. Ol'man River 4:30 6. He Who Picks A Rose 2:2718. I'm Ready For Love 2:26 7. Why Did You Leave Me Darling 2:1119. Try To Remember 3:06 8. I Truly Truly Believe 2:4320. Who Can I Turn To (When Nobody Needs Me) 3:28 9. This Is My Beloved 2:1321. What Now My Love 3:4210. Gonna Give Her All The Love I've Got 2:4622. That's Life 3:0111. I've Passed This Way Before 2:4323. With These Hands 3:4312. No Man Can Love Her Like I Do 2:1624. The Impossible Dream 3:23
Доп. информация:
 
Log EAC
Exact Audio Copy V0.99 prebeta 5 from 4. May 2009
Отчёт EAC об извлечении, выполненном 20. января 2010, 14:56
Temptations 9070 / Wish It Would Rain / In A Mellow Mood
Дисковод: ASUS DRW-2014L1T Adapter: 4 ID: 0
Режим чтения : Достоверность
Использование точного потока : Да
Отключение кэша аудио : Да
Использование указателей C2 : Нет
Коррекция смещения при чтении : 6
Способность читать области Lead-in и Lead-out : Нет
Заполнение пропущенных сэмплов тишиной : Да
Удаление блоков с тишиной в начале и конце : Нет
При вычислениях CRC использовались нулевые сэмплы : Да
Интерфейс : Установленный внешний ASPI-интерфейс
Обработка зазоров : Добавлено к следующему треку
Выходной формат : Пользовательский кодировщик
Выбранный битрейт : 1024 kBit/s
Качество : Высокий
Добавление ID3-тэга : Нет
Утилита сжатия : C:\Program Files\Exact Audio Copy\FLAC\FLAC.EXE
Дополнительные параметры : -6 -V -T "ARTIST=%a" -T "TITLE=%t" -T "ALBUM=%g" -T "DATE=%y" -T "TRACKNUMBER=%n" -T "GENRE=%m" -T "COMMENT=%e" %s -o %d
TOC извлечённого CD
Трек | Старт | Длительность | Начальный сектор | Конечный сектор
---------------------------------------------------------------------
1 | 0:00.00 | 3:36.70 | 0 | 16269
2 | 3:36.70 | 3:07.60 | 16270 | 30354
3 | 6:44.55 | 2:45.35 | 30355 | 42764
4 | 9:30.15 | 2:26.00 | 42765 | 53714
5 | 11:56.15 | 2:43.45 | 53715 | 65984
6 | 14:39.60 | 2:27.45 | 65985 | 77054
7 | 17:07.30 | 2:11.15 | 77055 | 86894
8 | 19:18.45 | 2:43.47 | 86895 | 99166
9 | 22:02.17 | 2:13.28 | 99167 | 109169
10 | 24:15.45 | 2:46.32 | 109170 | 121651
11 | 27:02.02 | 2:43.25 | 121652 | 133901
12 | 29:45.27 | 2:16.23 | 133902 | 144124
13 | 32:01.50 | 3:00.70 | 144125 | 157694
14 | 35:02.45 | 2:08.55 | 157695 | 167349
15 | 37:11.25 | 3:08.50 | 167350 | 181499
16 | 40:20.00 | 4:19.27 | 181500 | 200951
17 | 44:39.27 | 4:30.53 | 200952 | 221254
18 | 49:10.05 | 2:26.37 | 221255 | 232241
19 | 51:36.42 | 3:06.48 | 232242 | 246239
20 | 54:43.15 | 3:28.05 | 246240 | 261844
21 | 58:11.20 | 3:42.20 | 261845 | 278514
22 | 61:53.40 | 3:01.47 | 278515 | 292136
23 | 64:55.12 | 3:43.05 | 292137 | 308866
24 | 68:38.17 | 3:23.28 | 308867 | 324119
Трек 1
Имя файла E:\The Temptations - Wish It Would Rain & In A Mellow Wood(1967)\01. I Could Never Love Another (After Loving You) - Temptations 9070.wav
Длина предзазора 0:00:02.00
Пиковый уровень 97.6 %
Качество трека 100.0 %
CRC теста 6BD51C5B
CRC копии 6BD51C5B
Точность не определена (достоверность 2) [FD007757], AccurateRip вернул [618C7E57]
Копирование... OK
Трек 2
Имя файла E:\The Temptations - Wish It Would Rain & In A Mellow Wood(1967)\02. Cindy - Temptations 9070.wav
Длина предзазора 0:00:02.23
Пиковый уровень 93.6 %
Качество трека 100.0 %
CRC теста D93657F0
CRC копии D93657F0
Точность не определена (достоверность 2) [88F5B166], AccurateRip вернул [6E05221E]
Копирование... OK
Трек 3
Имя файла E:\The Temptations - Wish It Would Rain & In A Mellow Wood(1967)\03. I Wish It Would Rain - Temptations 9070.wav
Длина предзазора 0:00:02.45
Пиковый уровень 100.0 %
Качество трека 100.0 %
CRC теста 983840DC
CRC копии 983840DC
Точность не определена (достоверность 2) [88E8EDC4], AccurateRip вернул [93E6E26C]
Копирование... OK
Трек 4
Имя файла E:\The Temptations - Wish It Would Rain & In A Mellow Wood(1967)\04. Please Return Your Love To Me - Temptations 9070.wav
Длина предзазора 0:00:02.55
Пиковый уровень 94.3 %
Качество трека 99.9 %
CRC теста 1B20FA46
CRC копии 1B20FA46
Точность не определена (достоверность 2) [0DE100A9], AccurateRip вернул [D0880EC9]
Копирование... OK
Трек 5
Имя файла E:\The Temptations - Wish It Would Rain & In A Mellow Wood(1967)\05. Fan The Flame - Temptations 9070.wav
Длина предзазора 0:00:02.45
Пиковый уровень 100.0 %
Качество трека 100.0 %
CRC теста BCF7BBA7
CRC копии BCF7BBA7
Точность не определена (достоверность 2) [9E6C44FC], AccurateRip вернул [5E5E456C]
Копирование... OK
Трек 6
Имя файла E:\The Temptations - Wish It Would Rain & In A Mellow Wood(1967)\06. He Who Picks The Rose - Temptations 9070.wav
Длина предзазора 0:00:02.23
Пиковый уровень 91.4 %
Качество трека 100.0 %
CRC теста 18CEF363
CRC копии 18CEF363
Точность не определена (достоверность 2) [57898923], AccurateRip вернул [0E4C14E3]
Копирование... OK
Трек 7
Имя файла E:\The Temptations - Wish It Would Rain & In A Mellow Wood(1967)\07. WHy Did You Leave Me Darling - Temptations 9070.wav
Длина предзазора 0:00:02.55
Пиковый уровень 100.0 %
Качество трека 99.9 %
CRC теста 7B9C3A68
CRC копии 7B9C3A68
Точность не определена (достоверность 2) [73F9F8EB], AccurateRip вернул [2C303773]
Копирование... OK
Трек 8
Имя файла E:\The Temptations - Wish It Would Rain & In A Mellow Wood(1967)\08. I Truly, Truly Believe - Temptations 9070.wav
Длина предзазора 0:00:02.08
Пиковый уровень 94.0 %
Качество трека 100.0 %
CRC теста 8790C945
CRC копии 8790C945
Точность не определена (достоверность 2) [44B05B3A], AccurateRip вернул [08E9473A]
Копирование... OK
Трек 9
Имя файла E:\The Temptations - Wish It Would Rain & In A Mellow Wood(1967)\09. This Is My Beloved - Temptations 9070.wav
Длина предзазора 0:00:03.35
Пиковый уровень 71.9 %
Качество трека 99.9 %
CRC теста F5191BD0
CRC копии F5191BD0
Точность не определена (достоверность 2) [7922073B], AccurateRip вернул [BF319BC3]
Копирование... OK
Трек 10
Имя файла E:\The Temptations - Wish It Would Rain & In A Mellow Wood(1967)\10. Gonna Give Her All The Love I've Got - Temptations 9070.wav
Длина предзазора 0:00:03.28
Пиковый уровень 97.6 %
Качество трека 100.0 %
CRC теста 6A0B9ACA
CRC копии 6A0B9ACA
Точность не определена (достоверность 2) [F74893A9], AccurateRip вернул [5F6A3469]
Копирование... OK
Трек 11
Имя файла E:\The Temptations - Wish It Would Rain & In A Mellow Wood(1967)\11. I've Passed This Way Before - Temptations 9070.wav
Длина предзазора 0:00:02.50
Пиковый уровень 94.9 %
Качество трека 100.0 %
CRC теста E34102F6
CRC копии E34102F6
Точность не определена (достоверность 2) [6EEE8F22], AccurateRip вернул [C3DFA5A2]
Копирование... OK
Трек 12
Имя файла E:\The Temptations - Wish It Would Rain & In A Mellow Wood(1967)\12. No Man Can Love Her Like I Do - Temptations 9070.wav
Длина предзазора 0:00:02.62
Пиковый уровень 87.4 %
Качество трека 99.9 %
CRC теста 99024F1D
CRC копии 99024F1D
Точность не определена (достоверность 2) [FED86176], AccurateRip вернул [328621B6]
Копирование... OK
Трек 13
Имя файла E:\The Temptations - Wish It Would Rain & In A Mellow Wood(1967)\13. Hello Young Lovers - Temptations 9070.wav
Пиковый уровень 100.0 %
Качество трека 99.9 %
CRC теста 7872C1C8
CRC копии 7872C1C8
Точность не определена (достоверность 2) [A9BDD3CB], AccurateRip вернул [81D624A3]
Копирование... OK
Трек 14
Имя файла E:\The Temptations - Wish It Would Rain & In A Mellow Wood(1967)\14. Taste Of Honey - Temptations 9070.wav
Длина предзазора 0:00:03.20
Пиковый уровень 100.0 %
Качество трека 100.0 %
CRC теста BCFDFCFC
CRC копии BCFDFCFC
Точность не определена (достоверность 2) [92D152DA], AccurateRip вернул [0D57F532]
Копирование... OK
Трек 15
Имя файла E:\The Temptations - Wish It Would Rain & In A Mellow Wood(1967)\15. For Once In My Life - Temptations 9070.wav
Длина предзазора 0:00:04.00
Пиковый уровень 98.7 %
Качество трека 100.0 %
CRC теста 8887B400
CRC копии 8887B400
Точность не определена (достоверность 2) [283CA2DB], AccurateRip вернул [5C462643]
Копирование... OK
Трек 16
Имя файла E:\The Temptations - Wish It Would Rain & In A Mellow Wood(1967)\16. Somewhere - Temptations 9070.wav
Длина предзазора 0:00:03.40
Пиковый уровень 100.0 %
Качество трека 99.9 %
CRC теста A6852A59
CRC копии A6852A59
Точность не определена (достоверность 2) [594F295A], AccurateRip вернул [3FB8C4CA]
Копирование... OK
Трек 17
Имя файла E:\The Temptations - Wish It Would Rain & In A Mellow Wood(1967)\17. Ol' Man River - Temptations 9070.wav
Длина предзазора 0:00:04.42
Пиковый уровень 100.0 %
Качество трека 100.0 %
CRC теста 47ADE83A
CRC копии 47ADE83A
Точность не определена (достоверность 2) [66898588], AccurateRip вернул [0F210130]
Копирование... OK
Трек 18
Имя файла E:\The Temptations - Wish It Would Rain & In A Mellow Wood(1967)\18. I'm Ready For Love - Temptations 9070.wav
Длина предзазора 0:00:04.35
Пиковый уровень 100.0 %
Качество трека 100.0 %
CRC теста 1037ACB1
CRC копии 1037ACB1
Точность не определена (достоверность 2) [64E903E8], AccurateRip вернул [A6A4FA88]
Копирование... OK
Трек 19
Имя файла E:\The Temptations - Wish It Would Rain & In A Mellow Wood(1967)\19. Try To remember - Temptations 9070.wav
Длина предзазора 0:00:03.27
Пиковый уровень 100.0 %
Качество трека 100.0 %
CRC теста A83488DE
CRC копии A83488DE
Точность не определена (достоверность 2) [A89250D6], AccurateRip вернул [DF58B006]
Копирование... OK
Трек 20
Имя файла E:\The Temptations - Wish It Would Rain & In A Mellow Wood(1967)\20. Who Can I Turn To (When Nobody Needs Me) - Temptations 9070.wav
Длина предзазора 0:00:03.73
Пиковый уровень 100.0 %
Качество трека 100.0 %
CRC теста 4D1E6590
CRC копии 4D1E6590
Точность не определена (достоверность 2) [4A797D0E], AccurateRip вернул [FAF7BC16]
Копирование... OK
Трек 21
Имя файла E:\The Temptations - Wish It Would Rain & In A Mellow Wood(1967)\21. What Now My Love - Temptations 9070.wav
Длина предзазора 0:00:03.48
Пиковый уровень 100.0 %
Качество трека 100.0 %
CRC теста 542756C6
CRC копии 542756C6
Точность не определена (достоверность 2) [0F68D22A], AccurateRip вернул [0FB26382]
Копирование... OK
Трек 22
Имя файла E:\The Temptations - Wish It Would Rain & In A Mellow Wood(1967)\22. That's Life - Temptations 9070.wav
Длина предзазора 0:00:04.48
Пиковый уровень 100.0 %
Качество трека 99.9 %
CRC теста 1FBB4C36
CRC копии 1FBB4C36
Точность не определена (достоверность 2) [D03C5D52], AccurateRip вернул [EC4702EA]
Копирование... OK
Трек 23
Имя файла E:\The Temptations - Wish It Would Rain & In A Mellow Wood(1967)\23. With These Hands - Temptations 9070.wav
Длина предзазора 0:00:03.50
Пиковый уровень 100.0 %
Качество трека 100.0 %
CRC теста AB1C6CD3
CRC копии AB1C6CD3
Точность не определена (достоверность 2) [7B1639B3], AccurateRip вернул [4E58398B]
Копирование... OK
Трек 24
Имя файла E:\The Temptations - Wish It Would Rain & In A Mellow Wood(1967)\24. Impossible Dream - Temptations 9070.wav
Длина предзазора 0:00:03.25
Пиковый уровень 100.0 %
Качество трека 100.0 %
CRC теста F922DE2D
CRC копии F922DE2D
Точность не определена (достоверность 2) [2BFF1469], AccurateRip вернул [62FA7039]
Копирование... OK
Ни один трек не прошёл проверки на точность
В вашей базе может быть иной вариант штамповки диска
Ошибок не произошло
Конец отчёта
 
Tau Analyzer - 1.2
Приватный:
Нет (DHT включён)
Размер:
430.88 Мб (451,811,645 байт) » файлов: 30
Участники:
0 раздают, 0 качают (0 участников всего)
Внешние участники:
2 раздают, 1 качают (3 участников всего) [ Обновить ]
Нет сидеров - пишите личное сообщение M0p94ok. Не нравятся торренты? Участники группы Pro-jazz Club могут заказать прямую ссылку на скачивание из облака.
No seeders - write a personal message to M0p94ok. Don't like torrents? Members of Pro-jazz Club group can order a direct download link from the cloud.
02:13
28
Нет комментариев. Ваш будет первым!