Поиск

(Funk, Soul) Kool And The Gang - Still Kool - 2007, FLAC (image+.cue), lossless

(Funk, Soul) Kool And The Gang - Still Kool - 2007, FLAC (image+.cue), lossless
Треклист:
Kool And The Gang - Still Kool
Жанр: Funk, Soul
Год выпуска диска: 2007
Производитель диска: USA
Аудио кодек: FLAC
Тип рипа: image+.cue
Битрейт аудио: lossless
Продолжительность: 1:05:00
Трэклист:
01. Dave
02. Steppin' Into Love
03. America
04. What's Happening Brother
05. Is What It Is
06. Everything's Gonna Change
07. Too Low For Zero
08. Bang Bang With The Gang
09. Made For Love
10. Give It Up
11. Trust Me
12. Miracles
13. Livin'In The 21
14. Sorry
15. Someone Like You
16. Sailing (instrumental)
Доп. информация:
 
Log EAC
Exact Audio Copy V0.99 prebeta 5 from 4. May 2009
Отчёт EAC об извлечении, выполненном 8. марта 2010, 14:24
Kool & The Gang / Still Kool
Дисковод: MATSHITAUJDA755 DVD/CDRW Adapter: 1 ID: 0
Режим чтения : Достоверность
Использование точного потока : Да
Отключение кэша аудио : Да
Использование указателей C2 : Нет
Коррекция смещения при чтении : 102
Способность читать области Lead-in и Lead-out : Нет
Заполнение пропущенных сэмплов тишиной : Да
Удаление блоков с тишиной в начале и конце : Нет
При вычислениях CRC использовались нулевые сэмплы : Да
Интерфейс : Встроенный Win32-интерфейс для Win NT/2000
Выходной формат : Пользовательский кодировщик
Выбранный битрейт : 768 kBit/s
Качество : Высокий
Добавление ID3-тэга : Нет
Утилита сжатия : C:\Program Files\Exact Audio Copy\FLAC\FLAC.EXE
Дополнительные параметры : -8 -V %s
TOC извлечённого CD
Трек | Старт | Длительность | Начальный сектор | Конечный сектор
---------------------------------------------------------------------
1 | 0:00.00 | 4:46.30 | 0 | 21479
2 | 4:46.30 | 4:16.60 | 21480 | 40739
3 | 9:03.15 | 3:57.05 | 40740 | 58519
4 | 13:00.20 | 1:39.42 | 58520 | 65986
5 | 14:39.62 | 2:50.08 | 65987 | 78744
6 | 17:29.70 | 3:56.30 | 78745 | 96474
7 | 21:26.25 | 5:17.39 | 96475 | 120288
8 | 26:43.64 | 3:32.16 | 120289 | 136204
9 | 30:16.05 | 4:09.10 | 136205 | 154889
10 | 34:25.15 | 3:08.52 | 154890 | 169041
11 | 37:33.67 | 3:52.61 | 169042 | 186502
12 | 41:26.53 | 4:21.44 | 186503 | 206121
13 | 45:48.22 | 4:17.08 | 206122 | 225404
14 | 50:05.30 | 4:49.61 | 225405 | 247140
15 | 54:55.16 | 5:52.31 | 247141 | 273571
16 | 60:47.47 | 4:12.63 | 273572 | 292534
Характеристики диапазона извлечения и сообщения об ошибках
Выбранный диапазон
Имя файла F:\Проба\Kool & The Gang - Still Kool.wav
Пиковый уровень 100.0 %
Качество диапазона 100.0 %
CRC теста 84E42412
CRC копии 84E42412
Копирование... OK
Ошибок не произошло
AccurateRip: сводка
Трек 1 точность не определена (достоверность 2) [C12416F7], AccurateRip вернул [BC9B21B6]
Трек 2 точность не определена (достоверность 2) [8F8E9976], AccurateRip вернул [82A2F1CD]
Трек 3 точность не определена (достоверность 2) [4999FF6A], AccurateRip вернул [68CE6334]
Трек 4 точность не определена (достоверность 2) [FC0B8513], AccurateRip вернул [B4036686]
Трек 5 точность не определена (достоверность 2) [9178B976], AccurateRip вернул [B1CF28E2]
Трек 6 точность не определена (достоверность 2) [A6E9C2BF], AccurateRip вернул [C319987A]
Трек 7 точность не определена (достоверность 2) [29507CB4], AccurateRip вернул [70B3D86A]
Трек 8 точность не определена (достоверность 2) [B2FF607A], AccurateRip вернул [237C2066]
Трек 9 точность не определена (достоверность 2) [25469455], AccurateRip вернул [1B27EA67]
Трек 10 точность не определена (достоверность 2) [DAD0EA6D], AccurateRip вернул [9C2FF3E3]
Трек 11 точность не определена (достоверность 2) [0087A6EB], AccurateRip вернул [3EFE3E41]
Трек 12 точность не определена (достоверность 2) [E5D76C59], AccurateRip вернул [45961FC7]
Трек 13 точность не определена (достоверность 2) [F2D833EA], AccurateRip вернул [3A38FED6]
Трек 14 нет в базе данных
Трек 15 точность не определена (достоверность 2) [5FE1BEB8], AccurateRip вернул [07698615]
Трек 16 точность не определена (достоверность 2) [A1D5871A], AccurateRip вернул [649EBF2C]
15 трек(и) не удалось проверить на точность
1 трек(и) не содержатся в базе AccurateRip
Ни один трек не прошёл проверки на точность
В вашей базе может быть иной вариант штамповки диска
Конец отчёта
Торрент перезалит с новым логом 8.03.2010 в 18-10
Приватный:
Нет (DHT включён)
Размер:
448.94 Мб (470,744,367 байт) » файлов: 7
Участники:
0 раздают, 0 качают (0 участников всего)
Внешние участники:
1 раздают, 0 качают (1 участников всего) [ Обновить ]
Нет сидеров - пишите личное сообщение M0p94ok. Не нравятся торренты? Участники группы Pro-jazz Club могут заказать прямую ссылку на скачивание из облака.
No seeders - write a personal message to M0p94ok. Don't like torrents? Members of Pro-jazz Club group can order a direct download link from the cloud.
02:14
21
Нет комментариев. Ваш будет первым!