Поиск

(Funk / Soul) The Temptations-Legacy - 2004, FLAC (image+.cue), lossless

(Funk / Soul) The Temptations-Legacy - 2004, FLAC (image+.cue), lossless
Треклист:
The Temptations-Legacy
Жанр: Funk / Soul
Год выпуска диска: 2004
Аудио кодек: FLAC
Тип рипа: image+.cue
Битрейт аудио: lossless
Продолжительность: 0:58:11
Трэклист:
1. Still Tempting
2. Round Here
3. Stay Together
4. Somethin' Special
5. Fifty Fifty Love
6. Love to the Music
7. You Are Necessary in My Life (The Wedding Song)
8. Mr. Fix It
9. All the Wrong People
10.Baby It's Me
11.Why Can't We Be Lovin' Friends
12.Never Let You Down
Доп. информация:
 
Log EAC
Exact Audio Copy V0.99 prebeta 5 from 4. May 2009
Отчёт EAC об извлечении, выполненном 24. января 2010, 21:01
The Temptations / Legacy
Дисковод: MATSHITAUJDA755 DVD/CDRW Adapter: 1 ID: 0
Режим чтения : Достоверность
Использование точного потока : Да
Отключение кэша аудио : Да
Использование указателей C2 : Нет
Коррекция смещения при чтении : 102
Способность читать области Lead-in и Lead-out : Нет
Заполнение пропущенных сэмплов тишиной : Да
Удаление блоков с тишиной в начале и конце : Нет
При вычислениях CRC использовались нулевые сэмплы : Да
Интерфейс : Встроенный Win32-интерфейс для Win NT/2000
Выходной формат : Пользовательский кодировщик
Выбранный битрейт : 768 kBit/s
Качество : Высокий
Добавление ID3-тэга : Нет
Утилита сжатия : C:\Program Files\Exact Audio Copy\FLAC\FLAC.EXE
Дополнительные параметры : -8 -V %s
TOC извлечённого CD
Трек | Старт | Длительность | Начальный сектор | Конечный сектор
---------------------------------------------------------------------
1 | 0:00.00 | 4:34.60 | 0 | 20609
2 | 4:34.60 | 3:59.74 | 20610 | 38608
3 | 8:34.59 | 4:29.04 | 38609 | 58787
4 | 13:03.63 | 4:45.42 | 58788 | 80204
5 | 17:49.30 | 3:43.29 | 80205 | 96958
6 | 21:32.59 | 4:48.09 | 96959 | 118567
7 | 26:20.68 | 6:35.69 | 118568 | 148261
8 | 32:56.62 | 4:46.56 | 148262 | 169767
9 | 37:43.43 | 4:45.57 | 169768 | 191199
10 | 42:29.25 | 5:17.44 | 191200 | 215018
11 | 47:46.69 | 5:53.71 | 215019 | 241564
12 | 53:40.65 | 4:28.65 | 241565 | 261729
13 | 60:41.55 | 0:13.53 | 273130 | 274157
Характеристики диапазона извлечения и сообщения об ошибках
Выбранный диапазон
Имя файла G:\FLACи\The Temptations - Legacy\The Temptations - Legacy.wav
Пиковый уровень 100.0 %
Качество диапазона 100.0 %
CRC теста E1CEF9F3
CRC копии E1CEF9F3
Копирование... OK
Ошибок не произошло
AccurateRip: сводка
Трек 1 точность не определена (достоверность 1) [B29DFF88], AccurateRip вернул [4A8B5087]
Трек 2 точность не определена (достоверность 1) [FEB8A3C1], AccurateRip вернул [49ED2FEB]
Трек 3 точность не определена (достоверность 1) [83A5D20A], AccurateRip вернул [43880378]
Трек 4 точность не определена (достоверность 1) [3DC88B59], AccurateRip вернул [BFD451EB]
Трек 5 точность не определена (достоверность 1) [71694637], AccurateRip вернул [2ED1CD92]
Трек 6 точность не определена (достоверность 1) [142CD560], AccurateRip вернул [88D25BF2]
Трек 7 точность не определена (достоверность 1) [25A8B4E6], AccurateRip вернул [995C87EF]
Трек 8 точность не определена (достоверность 1) [7C3E9BD2], AccurateRip вернул [6DC3E6DD]
Трек 9 точность не определена (достоверность 1) [91D63F6C], AccurateRip вернул [703CCD4F]
Трек 10 точность не определена (достоверность 1) [6E2ED1D2], AccurateRip вернул [3695B1A1]
Трек 11 точность не определена (достоверность 1) [AC1F56EE], AccurateRip вернул [DA868F23]
Трек 12 точность не определена (достоверность 1) [F91E7E14], AccurateRip вернул [C757492A]
Ни один трек не прошёл проверки на точность
В вашей базе может быть иной вариант штамповки диска
Конец отчёта
Приватный:
Нет (DHT включён)
Размер:
385.99 Мб (404,738,416 байт) » файлов: 9
Участники:
0 раздают, 0 качают (0 участников всего)
Внешние участники:
1 раздают, 0 качают (1 участников всего) [ Обновить ]
Нет сидеров - пишите личное сообщение M0p94ok. Не нравятся торренты? Участники группы Pro-jazz Club могут заказать прямую ссылку на скачивание из облака.
No seeders - write a personal message to M0p94ok. Don't like torrents? Members of Pro-jazz Club group can order a direct download link from the cloud.
02:15
21
Нет комментариев. Ваш будет первым!