Поиск

(R&B/Soul) Teddy Pendergrass - This One's For You / Heaven Only Knows (2005), FLAC (tracks+.cue)

(R&B/Soul) Teddy Pendergrass - This One's For You / Heaven Only Knows (2005), FLAC (tracks+.cue)
Треклист:
Teddy Pendergrass - This One's For You / Heaven Only Knows (2005)
Жанр: R&B/Soul
Год выпуска диска: 2005
Производитель диска: USA
Аудио кодек: FLAC
Тип рипа: tracks+.cue
Продолжительность: 01:11:49
Трэклист:
This One's For You (1982)
01 - I Can't Win For Losing
02 - This One's For You
03 - Loving You Was Good
04 - This Gift Of Life
05 - Now Tell Me That You Love Me
06 - It's Up To You (What You Do With Your Life)
07 - Don't Leave Me Out Along The Road
08 - Only To You
Heaven Only Knows (1983)
09 - Crazy About Your Love
10 - Judge For Yourself
11 - I Want My Baby Back
12 - Life Is For Living
13 - You And Me For Right Now
14 - Just Because You're Mine
15 - Heaven Only Knows
16 - Don't Ever Stop (Giving Your Love To Me)
 
EAC log
Exact Audio Copy V0.99 prebeta 4 from 23. January 2008
EAC extraction logfile from 20. January 2010, 20:17
Teddy Pendergrass / This One's For You + Heaven Only Knows
Used drive : OPTIARC DVD RW AD-5630A Adapter: 0 ID: 0
Read mode : Secure
Utilize accurate stream : Yes
Defeat audio cache : No
Make use of C2 pointers : Yes
Read offset correction : 48
Overread into Lead-In and Lead-Out : No
Fill up missing offset samples with silence : Yes
Delete leading and trailing silent blocks : No
Null samples used in CRC calculations : Yes
Used interface : Native Win32 interface for Win NT & 2000
Gap handling : Appended to previous track
Used output format : User Defined Encoder
Selected bitrate : 320 kBit/s
Quality : High
Add ID3 tag : No
Command line compressor : C:\Program\Exact Audio Copy\FLAC\FLAC.EXE
Additional command line options : -8 -V -T "artist=%a" -T "title=%t" -T "album=%g" -T "date=%y" -T "tracknumber=%n" -T "genre=%m" %s
TOC of the extracted CD
Track | Start | Length | Start sector | End sector
---------------------------------------------------------
1 | 0:00.00 | 4:16.70 | 0 | 19269
2 | 4:16.70 | 6:20.60 | 19270 | 47829
3 | 10:37.55 | 3:35.39 | 47830 | 63993
4 | 14:13.19 | 4:28.46 | 63994 | 84139
5 | 18:41.65 | 5:14.74 | 84140 | 107763
6 | 23:56.64 | 5:37.45 | 107764 | 133083
7 | 29:34.34 | 3:30.36 | 133084 | 148869
8 | 33:04.70 | 3:54.35 | 148870 | 166454
9 | 36:59.30 | 3:51.42 | 166455 | 183821
10 | 40:50.72 | 5:14.63 | 183822 | 207434
11 | 46:05.60 | 4:03.54 | 207435 | 225713
12 | 50:09.39 | 4:14.50 | 225714 | 244813
13 | 54:24.14 | 3:30.29 | 244814 | 260592
14 | 57:54.43 | 4:57.32 | 260593 | 282899
15 | 62:52.00 | 4:12.42 | 282900 | 301841
16 | 67:04.42 | 4:45.15 | 301842 | 323231
Track 1
Filename C:\Documents and Settings\Administratцr\Skrivbord\Teddy Pendergrass - This One's For You + Heaven Only Knows\01 - I Can't Win For Losing.wav
Pre-gap length 0:00:02.00
Peak level 94.2 %
Track quality 100.0 %
Test CRC EEC27F84
Copy CRC EEC27F84
Accurately ripped (confidence 1) [77998C3C]
Copy OK
Track 2
Filename C:\Documents and Settings\Administratцr\Skrivbord\Teddy Pendergrass - This One's For You + Heaven Only Knows\02 - This One's For You.wav
Pre-gap length 0:00:02.41
Peak level 93.8 %
Track quality 100.0 %
Test CRC EE9B171B
Copy CRC EE9B171B
Accurately ripped (confidence 1) [54D3BA6C]
Copy OK
Track 3
Filename C:\Documents and Settings\Administratцr\Skrivbord\Teddy Pendergrass - This One's For You + Heaven Only Knows\03 - Loving You Was Good.wav
Pre-gap length 0:00:02.40
Peak level 91.5 %
Track quality 100.0 %
Test CRC 81F3CD6D
Copy CRC 81F3CD6D
Accurately ripped (confidence 1) [5C97F22B]
Copy OK
Track 4
Filename C:\Documents and Settings\Administratцr\Skrivbord\Teddy Pendergrass - This One's For You + Heaven Only Knows\04 - This Gift Of Life.wav
Pre-gap length 0:00:02.41
Peak level 89.5 %
Track quality 100.0 %
Test CRC DF0E6D2C
Copy CRC DF0E6D2C
Accurately ripped (confidence 1) [34EC540B]
Copy OK
Track 5
Filename C:\Documents and Settings\Administratцr\Skrivbord\Teddy Pendergrass - This One's For You + Heaven Only Knows\05 - Now Tell Me That You Love Me.wav
Pre-gap length 0:00:02.41
Peak level 92.6 %
Track quality 100.0 %
Test CRC 5C4806AF
Copy CRC 5C4806AF
Accurately ripped (confidence 1) [65F573AB]
Copy OK
Track 6
Filename C:\Documents and Settings\Administratцr\Skrivbord\Teddy Pendergrass - This One's For You + Heaven Only Knows\06 - It's Up To You (What You Do With Your Life).wav
Pre-gap length 0:00:02.41
Peak level 93.1 %
Track quality 100.0 %
Test CRC 92CE5A24
Copy CRC 92CE5A24
Accurately ripped (confidence 1) [A454E04A]
Copy OK
Track 7
Filename C:\Documents and Settings\Administratцr\Skrivbord\Teddy Pendergrass - This One's For You + Heaven Only Knows\07 - Don't Leave Me Out Along The Road.wav
Pre-gap length 0:00:02.41
Peak level 90.5 %
Track quality 100.0 %
Test CRC 281D19B3
Copy CRC 281D19B3
Accurately ripped (confidence 1) [6ABADB98]
Copy OK
Track 8
Filename C:\Documents and Settings\Administratцr\Skrivbord\Teddy Pendergrass - This One's For You + Heaven Only Knows\08 - Only To You.wav
Pre-gap length 0:00:02.41
Peak level 93.7 %
Track quality 100.0 %
Test CRC AA97F506
Copy CRC AA97F506
Accurately ripped (confidence 1) [B8236726]
Copy OK
Track 9
Filename C:\Documents and Settings\Administratцr\Skrivbord\Teddy Pendergrass - This One's For You + Heaven Only Knows\09 - Crazy About Your Love.wav
Pre-gap length 0:00:04.41
Peak level 93.7 %
Track quality 100.0 %
Test CRC 6FCD07B9
Copy CRC 6FCD07B9
Accurately ripped (confidence 1) [B7D1109E]
Copy OK
Track 10
Filename C:\Documents and Settings\Administratцr\Skrivbord\Teddy Pendergrass - This One's For You + Heaven Only Knows\10 - Judge For Yourself.wav
Pre-gap length 0:00:02.41
Peak level 93.8 %
Track quality 100.0 %
Test CRC A8BB741D
Copy CRC A8BB741D
Accurately ripped (confidence 1) [CBE55232]
Copy OK
Track 11
Filename C:\Documents and Settings\Administratцr\Skrivbord\Teddy Pendergrass - This One's For You + Heaven Only Knows\11 - I Want My Baby Back.wav
Pre-gap length 0:00:02.41
Peak level 94.2 %
Track quality 100.0 %
Test CRC 89C8C64B
Copy CRC 89C8C64B
Accurately ripped (confidence 1) [64AD0136]
Copy OK
Track 12
Filename C:\Documents and Settings\Administratцr\Skrivbord\Teddy Pendergrass - This One's For You + Heaven Only Knows\12 - Life Is For Living.wav
Pre-gap length 0:00:02.41
Peak level 94.2 %
Track quality 99.9 %
Test CRC A9003FEC
Copy CRC A9003FEC
Accurately ripped (confidence 1) [AB141802]
Copy OK
Track 13
Filename C:\Documents and Settings\Administratцr\Skrivbord\Teddy Pendergrass - This One's For You + Heaven Only Knows\13 - You And Me For Right Now.wav
Pre-gap length 0:00:02.41
Peak level 94.2 %
Track quality 100.0 %
Test CRC 4E25C18B
Copy CRC 4E25C18B
Accurately ripped (confidence 1) [237E4D9A]
Copy OK
Track 14
Filename C:\Documents and Settings\Administratцr\Skrivbord\Teddy Pendergrass - This One's For You + Heaven Only Knows\14 - Just Because You're Mine.wav
Pre-gap length 0:00:02.41
Peak level 93.3 %
Track quality 100.0 %
Test CRC B11CA49C
Copy CRC B11CA49C
Accurately ripped (confidence 1) [E99518EB]
Copy OK
Track 15
Filename C:\Documents and Settings\Administratцr\Skrivbord\Teddy Pendergrass - This One's For You + Heaven Only Knows\15 - Heaven Only Knows.wav
Pre-gap length 0:00:02.41
Peak level 94.2 %
Track quality 100.0 %
Test CRC C3676012
Copy CRC C3676012
Accurately ripped (confidence 1) [9EB41B1F]
Copy OK
Track 16
Filename C:\Documents and Settings\Administratцr\Skrivbord\Teddy Pendergrass - This One's For You + Heaven Only Knows\16 - Don't Ever Stop (Giving Your Love To Me).wav
Pre-gap length 0:00:02.41
Peak level 94.2 %
Track quality 100.0 %
Test CRC 76C4AB7D
Copy CRC 76C4AB7D
Accurately ripped (confidence 1) [04A941D7]
Copy OK
All tracks accurately ripped
No errors occurred
End of status report
Приватный:
Нет (DHT включён)
Размер:
475.57 Мб (498,673,323 байт) » файлов: 29
Участники:
0 раздают, 0 качают (0 участников всего)
Внешние участники:
2 раздают, 1 качают (3 участников всего) [ Обновить ]
Нет сидеров - пишите личное сообщение M0p94ok. Не нравятся торренты? Участники группы Pro-jazz Club могут заказать прямую ссылку на скачивание из облака.
No seeders - write a personal message to M0p94ok. Don't like torrents? Members of Pro-jazz Club group can order a direct download link from the cloud.
02:15
33
Нет комментариев. Ваш будет первым!