Поиск

(Funk) The JBs 1975 Hustle With Speed (remastered 2003, Japanese Mini LP) (James Brown, Fred Wesley), FLAC (tracks+.cue), lossless

(Funk) The JBs 1975 Hustle With Speed (remastered 2003, Japanese Mini LP) (James Brown, Fred Wesley), FLAC (tracks+.cue), lossless
Треклист:
The JBs - Hustle With Speed (remastered 2003, Japanese Mini LP)
Жанр: Funk
Год выпуска альбома: 1975
Год выпуска диска: 2003
Производитель диска: Japan (Universal Music: UICY-9312)
Аудио кодек: FLAC
Тип рипа: tracks+.cue
Битрейт аудио: lossless
Продолжительность: 43:06
Трэклист:
1 (It's Not The Express) It's The J.B.'s Monaurail 8:14
2 Here We Come, Here We Go, Here We Are 4:26
3 All Aboard The Soul Funky Train 4:30
4 Transmograpfication 4:02
5 Thank You For Letting Me Be Myself And You Be Yours 9:46
6 Taurus, Aires & Leo 6:33
7 Things & Do 5:17
Band:
James Brown, Fred Wesley, Maceo Parker etc.
Доп. информация:
Thanks to Rarities for rip.
 
Амплитуда
 
EAC Log
Код:
EAC extraction logfile from 22. January 2008, 17:48 for CD
The J.B.'s / Hustle With Speed
Used drive  : TSSTcorpCD/DVDW SH-S182D   Adapter: 3  ID: 0
Read mode   : Secure with NO C2, accurate stream, disable cache
Read offset correction : 6
Overread into Lead-In and Lead-Out : No
Used output format : C:\Arquivos de programas\Exact Audio Copy\flac.exe   (User Defined Encoder)
                     320 kBit/s
                     Additional command line options : -V -8 -T "artist=%a" -T "title=%t" -T "album=%g" -T "date=%y" -T "tracknumber=%n" -T "genre=%m" %s
Other options      :
    Fill up missing offset samples with silence : Yes
    Delete leading and trailing silent blocks : No
    Installed external ASPI interface
Track  1
     Filename M:\The J.B.'s - Hustle With Speed - Japanese Edition (Mini LP-CD) (1975) [FLAC]\01 - Everybody Wanna Get Funky One More Time (Part 1 & 2).wav
     Pre-gap length  0:00:02.00
     Peak level 97.7 %
     Track quality 100.0 %
     Test CRC D09A9F68
     Copy CRC D09A9F68
     Copy OK
Track  2
     Filename M:\The J.B.'s - Hustle With Speed - Japanese Edition (Mini LP-CD) (1975) [FLAC]\02 - (It's Not the Express) It's the JB's Monaurail.wav
     Pre-gap length  0:00:03.45
     Peak level 97.7 %
     Track quality 100.0 %
     Test CRC 1EB996C3
     Copy CRC 1EB996C3
     Copy OK
Track  3
     Filename M:\The J.B.'s - Hustle With Speed - Japanese Edition (Mini LP-CD) (1975) [FLAC]\03 - Here We Come, Here We Go, Here We Are.wav
     Pre-gap length  0:00:02.28
     Peak level 97.7 %
     Track quality 100.0 %
     Test CRC 04251537
     Copy CRC 04251537
     Copy OK
Track  4
     Filename M:\The J.B.'s - Hustle With Speed - Japanese Edition (Mini LP-CD) (1975) [FLAC]\04 - Transmograpfication.wav
     Pre-gap length  0:00:02.81
     Peak level 97.7 %
     Track quality 100.0 %
     Test CRC F286097E
     Copy CRC F286097E
     Copy OK
Track  5
     Filename M:\The J.B.'s - Hustle With Speed - Japanese Edition (Mini LP-CD) (1975) [FLAC]\05 - Thank You for Letting Me Be Myself & You Be Yourself.wav
     Pre-gap length  0:00:02.74
     Peak level 97.7 %
     Track quality 100.0 %
     Test CRC 3C2FB254
     Copy CRC 3C2FB254
     Copy OK
Track  6
     Filename M:\The J.B.'s - Hustle With Speed - Japanese Edition (Mini LP-CD) (1975) [FLAC]\06 - Taurus Aries & Leo.wav
     Pre-gap length  0:00:00.01
     Peak level 97.7 %
     Track quality 100.0 %
     Test CRC B10E95B8
     Copy CRC B10E95B8
     Copy OK
Track  7
     Filename M:\The J.B.'s - Hustle With Speed - Japanese Edition (Mini LP-CD) (1975) [FLAC]\07 - Things & Do.wav
     Pre-gap length  0:00:02.88
     Peak level 97.7 %
     Track quality 100.0 %
     Test CRC 8842BE3E
     Copy CRC 8842BE3E
     Copy OK
No errors occured
End of status report
Другие альбомы группы:
1972 The JBs - Food For Thought (Japan, remastered 1990)
1973 The JBs - Doing It To Death (Japan, remastered 1990)
1974 Fred Wesley & The JBs - Damn Right I Am Somebody (remastered 1995)
1975 The JBs - Hustle With Speed (Japan, remastered 2003)
1979 The JBs - Groove Machine (remastered 2001)
1993 The JB Horns - Funky Good Time / Live '90
1994 The JB Horns - I Like It Like That
1999 The JBs Reunion - Bring The Funk On Down (2002 reissue)
Приватный:
Нет (DHT включён)
Размер:
265.57 Мб (278,470,801 байт) » файлов: 12
Участники:
0 раздают, 0 качают (0 участников всего)
Внешние участники:
7 раздают, 2 качают (9 участников всего) [ Обновить ]
Есть вопросы - пишите личное сообщение пользователю M0p94ok.
02:17
41
Нет комментариев. Ваш будет первым!