Поиск

(Jazz,Funk,Soul) James Brown - Out Of Sight - 1968, FLAC (tracks+.cue), lossless

(Jazz,Funk,Soul) James Brown - Out Of Sight - 1968, FLAC (tracks+.cue), lossless
Треклист:
James Brown - Out Of Sight
Жанр: Jazz,Funk,Soul
Год выпуска диска: 1968
Производитель диска: USA
Аудио кодек: FLAC
Тип рипа: tracks+.cue
Битрейт аудио: lossless
Продолжительность: 01:00:00
Трэклист:
1 Out of Sight Wright 2:22
2 Come Rain or Come Shine Arlen, Mercer 2:51
3 Good Rockin' Tonight Brown 2:30
4 Till Then Marcus, Seiler, Wood 2:41
5 Nature Boy Ahbez 2:41
6 I Wanna Be Around Mercer, Vimmerstadt 2:23
7 I Got You Wright(I Feel Good) 2:26
8 Maybe the Last Time Wright 2:56
9 Mona Lisa Evans, Livingston 1:57
10 I Loves You, Porgy Gershwin, Gershwin, Heyward 2:33
11 Only You Ram, Rand 2:50
12 Somethin' Else Brown, Jones 6:33
Доп. информация: Король Соула, удивился, неувидив этот альбом тут, по многим мнениям, лучший альбом James Brown. Оставайтесь на раздаче.
 
скрытый текст
Review by Andrew Hamilton
Andrew Hamilton писал(а):
Smash Records first released this collection in 1968 when James Brown made his highly publicized move from the King label. An odd album; outside of a few funky numbers, the material consists of standards — songs more commonly sung by Frank Sinatra and Nat King Cole, such as "I Wanna Be Around," "Mona Lisa," "Come Rain or Shine," "Nature Boy," and others. Brown does a good job; the man could actually sing ballads — in the '50s and early '60s he made a reputation singing about love changes and could make you cry with his touching deliveries. Brown had a brand-new thing in the form of "Out of Sight," a horn-blaring, rhythmic dancefloor jam that he implodes on. For some reason, Smash put "Maybe the Last Time," one of Brown's best songs, on the flip side, but it was so dominant that it surfaced and became a staple of his concerts. Only three other cuts funk: "Somethin' Else," an early version of "I Got You," and "Good Rockin' Tonight."
 
EAC 100%
Exact Audio Copy V0.99 prebeta 4 from 23. January 2008
EAC extraction logfile from 29. October 2008, 23:04
James Brown / Out Of Sight
Used drive : TSSTcorpCD/DVDW TS-H652L Adapter: 1 ID: 0
Read mode : Secure
Utilize accurate stream : Yes
Defeat audio cache : Yes
Make use of C2 pointers : No
Read offset correction : 6
Overread into Lead-In and Lead-Out : No
Fill up missing offset samples with silence : Yes
Delete leading and trailing silent blocks : No
Null samples used in CRC calculations : Yes
Used interface : Installed external ASPI interface
Gap handling : Appended to previous track
Used output format : User Defined Encoder
Selected bitrate : 768 kBit/s
Quality : High
Add ID3 tag : No
Command line compressor : C:\Program Files\Exact Audio Copy\FLAC\FLAC.EXE
Additional command line options : -V -8 -T "artist=%a" -T "title=%t" -T "album=%g" -T "date=%y" -T "tracknumber=%n" -T "genre=%m" %s
TOC of the extracted CD
Track | Start | Length | Start sector | End sector
---------------------------------------------------------
1 | 0:00.00 | 2:25.15 | 0 | 10889
2 | 2:25.15 | 2:54.60 | 10890 | 23999
3 | 5:20.00 | 2:33.72 | 24000 | 35546
4 | 7:53.72 | 2:44.55 | 35547 | 47901
5 | 10:38.52 | 2:44.05 | 47902 | 60206
6 | 13:22.57 | 2:26.48 | 60207 | 71204
7 | 15:49.30 | 2:30.00 | 71205 | 82454
8 | 18:19.30 | 2:59.47 | 82455 | 95926
9 | 21:19.02 | 2:00.48 | 95927 | 104974
10 | 23:19.50 | 2:36.45 | 104975 | 116719
11 | 25:56.20 | 2:53.32 | 116720 | 129726
12 | 28:49.52 | 6:33.50 | 129727 | 159251
Track 1
Filename g:\stuff\James Brown\James Brown -1968 - Out Of Sight\01 - Out Of Sight .wav
Pre-gap length 0:00:02.00
Peak level 99.9 %
Track quality 100.0 %
Test CRC 5CA23153
Copy CRC 5CA23153
Accurately ripped (confidence 2) [90265506]
Copy OK
Track 2
Filename g:\stuff\James Brown\James Brown -1968 - Out Of Sight\02 - Come Rain Or Come Shine .wav
Pre-gap length 0:00:03.00
Peak level 100.0 %
Track quality 100.0 %
Test CRC 9A513728
Copy CRC 9A513728
Accurately ripped (confidence 2) [A5CD5B40]
Copy OK
Track 3
Filename g:\stuff\James Brown\James Brown -1968 - Out Of Sight\03 - Good Rockin' Tonight .wav
Pre-gap length 0:00:02.97
Peak level 100.0 %
Track quality 100.0 %
Test CRC 3E2DEFD4
Copy CRC 3E2DEFD4
Accurately ripped (confidence 2) [F1BD5544]
Copy OK
Track 4
Filename g:\stuff\James Brown\James Brown -1968 - Out Of Sight\04 - Till Then .wav
Pre-gap length 0:00:03.00
Peak level 100.0 %
Track quality 100.0 %
Test CRC 868D841A
Copy CRC 868D841A
Accurately ripped (confidence 2) [36385A1C]
Copy OK
Track 5
Filename g:\stuff\James Brown\James Brown -1968 - Out Of Sight\05 - Nature Boy .wav
Pre-gap length 0:00:02.96
Peak level 99.0 %
Track quality 100.0 %
Test CRC 98B331DD
Copy CRC 98B331DD
Accurately ripped (confidence 2) [9EB2DADC]
Copy OK
Track 6
Filename g:\stuff\James Brown\James Brown -1968 - Out Of Sight\06 - I Wanna Be Around .wav
Pre-gap length 0:00:03.00
Peak level 91.6 %
Track quality 100.0 %
Test CRC 6BC91392
Copy CRC 6BC91392
Accurately ripped (confidence 2) [9D2B3D35]
Copy OK
Track 7
Filename g:\stuff\James Brown\James Brown -1968 - Out Of Sight\07 - I Got You .wav
Pre-gap length 0:00:03.04
Peak level 86.3 %
Track quality 100.0 %
Test CRC 08AA0677
Copy CRC 08AA0677
Accurately ripped (confidence 2) [B2ED729A]
Copy OK
Track 8
Filename g:\stuff\James Brown\James Brown -1968 - Out Of Sight\08 - Maybe The Last Time .wav
Pre-gap length 0:00:03.00
Peak level 95.2 %
Track quality 99.9 %
Test CRC 5CF560CA
Copy CRC 5CF560CA
Accurately ripped (confidence 2) [A47D5928]
Copy OK
Track 9
Filename g:\stuff\James Brown\James Brown -1968 - Out Of Sight\09 - Mona Lisa .wav
Pre-gap length 0:00:02.76
Peak level 72.9 %
Track quality 100.0 %
Test CRC 475FE6D4
Copy CRC 475FE6D4
Accurately ripped (confidence 2) [F56E8307]
Copy OK
Track 10
Filename g:\stuff\James Brown\James Brown -1968 - Out Of Sight\10 - I Love You Porgy .wav
Pre-gap length 0:00:03.00
Peak level 97.2 %
Track quality 100.0 %
Test CRC C1425D3B
Copy CRC C1425D3B
Accurately ripped (confidence 2) [CE454027]
Copy OK
Track 11
Filename g:\stuff\James Brown\James Brown -1968 - Out Of Sight\11 - Only You .wav
Pre-gap length 0:00:03.00
Peak level 85.1 %
Track quality 100.0 %
Test CRC 3FDEDE83
Copy CRC 3FDEDE83
Accurately ripped (confidence 2) [502B1FDC]
Copy OK
Track 12
Filename g:\stuff\James Brown\James Brown -1968 - Out Of Sight\12 - Somethin' Else .wav
Pre-gap length 0:00:03.02
Peak level 100.0 %
Track quality 100.0 %
Test CRC AF9BD8D8
Copy CRC AF9BD8D8
Accurately ripped (confidence 2) [E237D24B]
Copy OK
All tracks accurately ripped
No errors occurred
End of status report
Приватный:
Нет (DHT включён)
Размер:
213.03 Мб (223,378,928 байт) » файлов: 17
Участники:
0 раздают, 0 качают (0 участников всего)
Внешние участники:
5 раздают, 1 качают (6 участников всего) [ Обновить ]
Нет сидеров - пишите личное сообщение M0p94ok. Не нравятся торренты? Участники группы Pro-jazz Club могут заказать прямую ссылку на скачивание из облака.
No seeders - write a personal message to M0p94ok. Don't like torrents? Members of Pro-jazz Club group can order a direct download link from the cloud.
02:19
19
Нет комментариев. Ваш будет первым!