Поиск

(Soul) Sam Cooke - Live At The Harlem Square Club (1963) - 1985, FLAC (tracks+.cue), lossless

(Soul) Sam Cooke - Live At The Harlem Square Club (1963) - 1985, FLAC (tracks+.cue), lossless
Треклист:
Sam Cooke - Live At The Harlem Square Club (1963)
Жанр: Soul
Год выпуска диска: 1985
Производитель диска: Austria
Аудио кодек: FLAC
Тип рипа: tracks+.cue
Битрейт аудио: lossless
Продолжительность: 37m 31s
Трэклист:
01) Feel It (3:47)
02) Chain Gang (3:12)
03) Cupid (2:47)
04) Medley : It's All Right / For Sentimental Reasons (5:08)
05) Twisting The Night Away (4:20)
06) Somebody Have Mercy (4:44)
07) Bring It On Home To Me (5:38)
08) Nothing Can Change This Love (3:46)
09) Having A Party (4:09)
Доп. информация: Источник: what.cd, релизер sixsevenfiftysix.
Информация о диске: RCA ND90454.
В раздаче имеются сканы с discogs.com.
 
X Lossless Decoder log
X Lossless Decoder version 20090320 (105.1)
XLD extraction logfile from 2009-05-05 16:32:16 -0700
Sam Cooke / Live at the Harlem Square Club, 1963
Used drive : MATSHITA DVD-R UJ-857 (revision 4A0E)
Use cdparanoia mode : YES (CDParanoia III 10.2 engine)
Disable audio cache : OK for the drive with cache less than 2750KB
Make use of C2 pointers : NO
Read offset correction : 102
Max retry count : 100
TOC of the extracted CD
Track | Start | Length | Start sector | End sector
---------------------------------------------------------
1 | 00:00:00 | 03:46:50 | 0 | 16999
2 | 03:46:50 | 03:11:47 | 17000 | 31371
3 | 06:58:22 | 02:47:18 | 31372 | 43914
4 | 09:45:40 | 05:08:30 | 43915 | 67044
5 | 14:53:70 | 04:20:25 | 67045 | 86569
6 | 19:14:20 | 04:44:17 | 86570 | 107886
7 | 23:58:37 | 05:37:58 | 107887 | 133219
8 | 29:36:20 | 03:45:57 | 133220 | 150151
9 | 33:22:02 | 04:09:08 | 150152 | 168834
Track 01
Filename : /Volumes/Terabyte/CD Rips/Cooke, Sam/Sam Cooke - 1985 - Live at the Harlem Square Club, 1963/01 - Feel It.flac
/Volumes/Terabyte/CD Rips/Cooke, Sam/Sam Cooke - 1985 - Live at the Harlem Square Club, 1963/01 - Feel It.mp3
CRC32 hash (test run) : 3C8C8DAD
CRC32 hash : 3C8C8DAD
CRC32 hash (skip zero) : 9DD499BD
AccurateRip signature : 1D07ED74
->Accurately ripped! (confidence 5)
Statistics
Read error : 0
Skipped (treated as error) : 0
Edge jitter error (maybe fixed) : 0
Atom jitter error (maybe fixed) : 0
Drift error (maybe fixed) : 0
Dropped bytes error (maybe fixed) : 0
Duplicated bytes error (maybe fixed) : 0
Inconsistency in error sectors : 0
Track 02
Filename : /Volumes/Terabyte/CD Rips/Cooke, Sam/Sam Cooke - 1985 - Live at the Harlem Square Club, 1963/02 - Chain Gang.flac
/Volumes/Terabyte/CD Rips/Cooke, Sam/Sam Cooke - 1985 - Live at the Harlem Square Club, 1963/02 - Chain Gang.mp3
CRC32 hash (test run) : 188E60A1
CRC32 hash : 188E60A1
CRC32 hash (skip zero) : 89D1577E
AccurateRip signature : 0D1E596C
->Accurately ripped! (confidence 5)
Statistics
Read error : 0
Skipped (treated as error) : 0
Edge jitter error (maybe fixed) : 0
Atom jitter error (maybe fixed) : 0
Drift error (maybe fixed) : 0
Dropped bytes error (maybe fixed) : 0
Duplicated bytes error (maybe fixed) : 0
Inconsistency in error sectors : 0
Track 03
Filename : /Volumes/Terabyte/CD Rips/Cooke, Sam/Sam Cooke - 1985 - Live at the Harlem Square Club, 1963/03 - Cupid.flac
/Volumes/Terabyte/CD Rips/Cooke, Sam/Sam Cooke - 1985 - Live at the Harlem Square Club, 1963/03 - Cupid.mp3
CRC32 hash (test run) : B2BFA341
CRC32 hash : B2BFA341
CRC32 hash (skip zero) : CD67E680
AccurateRip signature : 19D400B5
->Accurately ripped! (confidence 5)
Statistics
Read error : 0
Skipped (treated as error) : 0
Edge jitter error (maybe fixed) : 0
Atom jitter error (maybe fixed) : 0
Drift error (maybe fixed) : 0
Dropped bytes error (maybe fixed) : 0
Duplicated bytes error (maybe fixed) : 0
Inconsistency in error sectors : 0
Track 04
Filename : /Volumes/Terabyte/CD Rips/Cooke, Sam/Sam Cooke - 1985 - Live at the Harlem Square Club, 1963/04 - Medleyпјљ It's All Right пјЏ For Sentimental Reasons.flac
/Volumes/Terabyte/CD Rips/Cooke, Sam/Sam Cooke - 1985 - Live at the Harlem Square Club, 1963/04 - Medleyпјљ It's All Right пјЏ For Sentimental Reasons.mp3
CRC32 hash (test run) : C8FFBF46
CRC32 hash : C8FFBF46
CRC32 hash (skip zero) : 927E3B2F
AccurateRip signature : 0FB68FA1
->Accurately ripped! (confidence 5)
Statistics
Read error : 0
Skipped (treated as error) : 0
Edge jitter error (maybe fixed) : 0
Atom jitter error (maybe fixed) : 0
Drift error (maybe fixed) : 0
Dropped bytes error (maybe fixed) : 0
Duplicated bytes error (maybe fixed) : 0
Inconsistency in error sectors : 0
Track 05
Filename : /Volumes/Terabyte/CD Rips/Cooke, Sam/Sam Cooke - 1985 - Live at the Harlem Square Club, 1963/05 - Twisting the Night Away.flac
/Volumes/Terabyte/CD Rips/Cooke, Sam/Sam Cooke - 1985 - Live at the Harlem Square Club, 1963/05 - Twisting the Night Away.mp3
CRC32 hash (test run) : 63254B8D
CRC32 hash : 63254B8D
CRC32 hash (skip zero) : C49A74BA
AccurateRip signature : 598C9821
->Accurately ripped! (confidence 5)
Statistics
Read error : 0
Skipped (treated as error) : 0
Edge jitter error (maybe fixed) : 0
Atom jitter error (maybe fixed) : 0
Drift error (maybe fixed) : 0
Dropped bytes error (maybe fixed) : 0
Duplicated bytes error (maybe fixed) : 0
Inconsistency in error sectors : 0
Track 06
Filename : /Volumes/Terabyte/CD Rips/Cooke, Sam/Sam Cooke - 1985 - Live at the Harlem Square Club, 1963/06 - Somebody Have Mercy.flac
/Volumes/Terabyte/CD Rips/Cooke, Sam/Sam Cooke - 1985 - Live at the Harlem Square Club, 1963/06 - Somebody Have Mercy.mp3
CRC32 hash (test run) : A723FCF2
CRC32 hash : A723FCF2
CRC32 hash (skip zero) : F9D7BC11
AccurateRip signature : FF823777
->Accurately ripped! (confidence 5)
Statistics
Read error : 0
Skipped (treated as error) : 0
Edge jitter error (maybe fixed) : 0
Atom jitter error (maybe fixed) : 0
Drift error (maybe fixed) : 0
Dropped bytes error (maybe fixed) : 0
Duplicated bytes error (maybe fixed) : 0
Inconsistency in error sectors : 0
Track 07
Filename : /Volumes/Terabyte/CD Rips/Cooke, Sam/Sam Cooke - 1985 - Live at the Harlem Square Club, 1963/07 - Bring It On Home to Me.flac
/Volumes/Terabyte/CD Rips/Cooke, Sam/Sam Cooke - 1985 - Live at the Harlem Square Club, 1963/07 - Bring It On Home to Me.mp3
CRC32 hash (test run) : 4A02DAD0
CRC32 hash : 4A02DAD0
CRC32 hash (skip zero) : 7E134BC4
AccurateRip signature : 5A98D392
->Accurately ripped! (confidence 4)
Statistics
Read error : 0
Skipped (treated as error) : 0
Edge jitter error (maybe fixed) : 0
Atom jitter error (maybe fixed) : 0
Drift error (maybe fixed) : 0
Dropped bytes error (maybe fixed) : 0
Duplicated bytes error (maybe fixed) : 0
Inconsistency in error sectors : 0
Track 08
Filename : /Volumes/Terabyte/CD Rips/Cooke, Sam/Sam Cooke - 1985 - Live at the Harlem Square Club, 1963/08 - Nothing Can Change This Love.flac
/Volumes/Terabyte/CD Rips/Cooke, Sam/Sam Cooke - 1985 - Live at the Harlem Square Club, 1963/08 - Nothing Can Change This Love.mp3
CRC32 hash (test run) : 4A7F5DBA
CRC32 hash : 4A7F5DBA
CRC32 hash (skip zero) : FB36B112
AccurateRip signature : DAA3BA36
->Accurately ripped! (confidence 5)
Statistics
Read error : 0
Skipped (treated as error) : 0
Edge jitter error (maybe fixed) : 0
Atom jitter error (maybe fixed) : 0
Drift error (maybe fixed) : 0
Dropped bytes error (maybe fixed) : 0
Duplicated bytes error (maybe fixed) : 0
Inconsistency in error sectors : 0
Track 09
Filename : /Volumes/Terabyte/CD Rips/Cooke, Sam/Sam Cooke - 1985 - Live at the Harlem Square Club, 1963/09 - Having a Party.flac
/Volumes/Terabyte/CD Rips/Cooke, Sam/Sam Cooke - 1985 - Live at the Harlem Square Club, 1963/09 - Having a Party.mp3
CRC32 hash (test run) : 95E3708B
CRC32 hash : 95E3708B
CRC32 hash (skip zero) : 5586CFC3
AccurateRip signature : 660F9732
->Accurately ripped! (confidence 5)
Statistics
Read error : 0
Skipped (treated as error) : 0
Edge jitter error (maybe fixed) : 0
Atom jitter error (maybe fixed) : 0
Drift error (maybe fixed) : 0
Dropped bytes error (maybe fixed) : 0
Duplicated bytes error (maybe fixed) : 0
Inconsistency in error sectors : 0
No errors occurred
End of status report
 
CUE Sheet
TITLE "Live at the Harlem Square Club, 1963"
PERFORMER "Sam Cooke"
REM GENRE "R&B"
REM DATE "Live at the Harlem Square Club, 1963"
FILE "01 - Feel It.wav" WAVE
TRACK 01 AUDIO
TITLE "Feel It"
PERFORMER "Sam Cooke"
INDEX 01 00:00:00
FILE "02 - Chain Gang.wav" WAVE
TRACK 02 AUDIO
TITLE "Chain Gang"
PERFORMER "Sam Cooke"
INDEX 01 00:00:00
FILE "03 - Cupid.wav" WAVE
TRACK 03 AUDIO
TITLE "Cupid"
PERFORMER "Sam Cooke"
INDEX 01 00:00:00
FILE "04 - Medley, It's All Right, For Sentimental Reasons.wav" WAVE
TRACK 04 AUDIO
TITLE "Medley: It's All Right / For Sentimental Reasons"
PERFORMER "Sam Cooke"
INDEX 01 00:00:00
FILE "05 - Twisting the Night Away.wav" WAVE
TRACK 05 AUDIO
TITLE "Twisting the Night Away"
PERFORMER "Sam Cooke"
INDEX 01 00:00:00
FILE "06 - Somebody Have Mercy.wav" WAVE
TRACK 06 AUDIO
TITLE "Somebody Have Mercy"
PERFORMER "Sam Cooke"
INDEX 01 00:00:00
FILE "07 - Bring It On Home to Me.wav" WAVE
TRACK 07 AUDIO
TITLE "Bring It On Home to Me"
PERFORMER "Sam Cooke"
INDEX 01 00:00:00
FILE "08 - Nothing Can Change This Love.wav" WAVE
TRACK 08 AUDIO
TITLE "Nothing Can Change This Love"
PERFORMER "Sam Cooke"
INDEX 01 00:00:00
FILE "09 - Having a Party.wav" WAVE
TRACK 09 AUDIO
TITLE "Having a Party"
PERFORMER "Sam Cooke"
INDEX 01 00:00:00
Приватный:
Нет (DHT включён)
Размер:
256.28 Мб (268,731,171 байт) » файлов: 15
Участники:
0 раздают, 0 качают (0 участников всего)
Внешние участники:
2 раздают, 1 качают (3 участников всего) [ Обновить ]
Никого нет на раздаче - пишите личное сообщение M0p94ok
No seeders - write personal message to M0p94ok
02:20
20
Нет комментариев. Ваш будет первым!