Поиск

(Soul) Sam Cooke - Portrait Of A Legend (1951-1964) - 2003, FLAC (tracks+.cue), lossless

(Soul) Sam Cooke - Portrait Of A Legend (1951-1964) - 2003, FLAC (tracks+.cue), lossless
Треклист:
Sam Cooke - Portrait Of A Legend (1951-1964)
Жанр: Soul
Год выпуска диска: 2003
Производитель диска: USA
Аудио кодек: FLAC
Тип рипа: tracks+.cue
Битрейт аудио: lossless
Продолжительность: 1h 19m 21s
Трэклист:
01. Touch The Hem Of His Garment (2:04)
02. Lovable (2:26)
03. You Send Me (2:46)
04. Only Sixteen (2:04)
05. (I Love You) For Sentimental Reasons (2:40)
06. Just For You (2:22)
07. Win You Love For Me (2:48)
08. Everybody Loves To Cha Cha Cha (2:43)
09. I'll Come Running Back To You (2:15)
10. You Were Made For Me (2:56)
11. Sad Mood (2:41)
12. Cupid (2:39)
13. (What A) Wonderful World (2:09)
14. Chain Gang (2:36)
15. Summertime (2:23)
16. Little Red Rooster (2:54)
17. Bring It On Home To Me (2:45)
18. Nothing Can Change This Love (2:40)
19. Sugar Dumpling (2:45)
20. (Ain't That) Good News (2:31)
21. Meet Me At Mary's Place (2:43)
22. Twistin' The Night Away (2:44)
23. Shake (2:54)
24. Tennessee Waltz (3:12)
25. Another Saturday Night (2:42)
26. Good Times (2:28)
27. Having A Party (2:38)
28. That's Where It's At (2:37)
29. A Change Is Gonna Come (3:13)
30. Jesus Gave Me Water (2:32)
31. Interview (Hidden Track) (0:33)
Доп. информация: Источник: what.cd, релизер clinty.
В раздаче имеются сканы с discogs.com.
 
EAC log
EAC extraction logfile from 15. December 2006, 20:52 for CD
Sam Cooke / Portrait of A Legend (1951-1964)
Used drive : SONY DVD RW DW-G120A Adapter: 3 ID: 0
Read mode : Secure with NO C2, accurate stream, disable cache
Read offset correction : 6
Overread into Lead-In and Lead-Out : No
Used output format : C:\Program Files\FLAC\flac.exe (User Defined Encoder)
128 kBit/s
Additional command line options : -V -8 -T "artist=%a" -T "title=%t" -T "album=%g" -T "date=%y" -T "tracknumber=%n" -T "genre=%m" %s
Other options :
Fill up missing offset samples with silence : Yes
Delete leading and trailing silent blocks : No
Native Win32 interface for Win NT & 2000
Track 1
Filename C:\Documents and Settings\td\Desktop\downloads\rips\Sam Cooke - Portrait of A Legend (1951-1964)\01 - Touch The Hem of His Garment.wav
Pre-gap length 0:00:02.00
Peak level 75.2 %
Track quality 100.0 %
Test CRC 3F043E04
Copy CRC 3F043E04
Copy OK
Track 2
Filename C:\Documents and Settings\td\Desktop\downloads\rips\Sam Cooke - Portrait of A Legend (1951-1964)\02 - Lovable.wav
Pre-gap length 0:00:02.80
Peak level 84.7 %
Track quality 100.0 %
Test CRC 93418E19
Copy CRC 93418E19
Copy OK
Track 3
Filename C:\Documents and Settings\td\Desktop\downloads\rips\Sam Cooke - Portrait of A Legend (1951-1964)\03 - You Send Me.wav
Pre-gap length 0:00:01.82
Peak level 79.1 %
Track quality 100.0 %
Test CRC 3844DD70
Copy CRC 3844DD70
Copy OK
Track 4
Filename C:\Documents and Settings\td\Desktop\downloads\rips\Sam Cooke - Portrait of A Legend (1951-1964)\04 - Only Sixteen.wav
Pre-gap length 0:00:02.66
Peak level 99.8 %
Track quality 100.0 %
Test CRC EF23E41A
Copy CRC EF23E41A
Copy OK
Track 5
Filename C:\Documents and Settings\td\Desktop\downloads\rips\Sam Cooke - Portrait of A Legend (1951-1964)\05 - (I Love You) For Sentimental Reasons.wav
Pre-gap length 0:00:02.26
Peak level 72.5 %
Track quality 100.0 %
Test CRC FBF63DC9
Copy CRC FBF63DC9
Copy OK
Track 6
Filename C:\Documents and Settings\td\Desktop\downloads\rips\Sam Cooke - Portrait of A Legend (1951-1964)\06 - Just For You.wav
Pre-gap length 0:00:02.49
Peak level 86.0 %
Track quality 99.9 %
Test CRC 626E5FA9
Copy CRC 626E5FA9
Copy OK
Track 7
Filename C:\Documents and Settings\td\Desktop\downloads\rips\Sam Cooke - Portrait of A Legend (1951-1964)\07 - Win Your Love For Me.wav
Pre-gap length 0:00:03.50
Peak level 98.2 %
Track quality 100.0 %
Test CRC 5B9C8C13
Copy CRC 5B9C8C13
Copy OK
Track 8
Filename C:\Documents and Settings\td\Desktop\downloads\rips\Sam Cooke - Portrait of A Legend (1951-1964)\08 - Everybody Loves To Cha Cha.wav
Pre-gap length 0:00:02.12
Peak level 83.4 %
Track quality 100.0 %
Test CRC 7B54E3C5
Copy CRC 7B54E3C5
Copy OK
Track 9
Filename C:\Documents and Settings\td\Desktop\downloads\rips\Sam Cooke - Portrait of A Legend (1951-1964)\09 - I'll Come Running Back To You.wav
Pre-gap length 0:00:02.13
Peak level 92.0 %
Track quality 99.9 %
Test CRC F45189AE
Copy CRC F45189AE
Copy OK
Track 10
Filename C:\Documents and Settings\td\Desktop\downloads\rips\Sam Cooke - Portrait of A Legend (1951-1964)\10 - You Were Made For Me.wav
Pre-gap length 0:00:02.13
Peak level 73.2 %
Track quality 100.0 %
Test CRC 873E546F
Copy CRC 873E546F
Copy OK
Track 11
Filename C:\Documents and Settings\td\Desktop\downloads\rips\Sam Cooke - Portrait of A Legend (1951-1964)\11 - Sad Mood.wav
Pre-gap length 0:00:02.64
Peak level 99.8 %
Track quality 100.0 %
Test CRC 9563FCB7
Copy CRC 9563FCB7
Copy OK
Track 12
Filename C:\Documents and Settings\td\Desktop\downloads\rips\Sam Cooke - Portrait of A Legend (1951-1964)\12 - Cupid.wav
Pre-gap length 0:00:01.93
Peak level 99.0 %
Track quality 100.0 %
Test CRC AC862EEB
Copy CRC AC862EEB
Copy OK
Track 13
Filename C:\Documents and Settings\td\Desktop\downloads\rips\Sam Cooke - Portrait of A Legend (1951-1964)\13 - (What A) Wonderful World.wav
Pre-gap length 0:00:02.64
Peak level 99.8 %
Track quality 100.0 %
Test CRC ADD788A5
Copy CRC ADD788A5
Copy OK
Track 14
Filename C:\Documents and Settings\td\Desktop\downloads\rips\Sam Cooke - Portrait of A Legend (1951-1964)\14 - Chain Gang.wav
Pre-gap length 0:00:02.57
Peak level 98.9 %
Track quality 99.9 %
Test CRC 8E101569
Copy CRC 8E101569
Copy OK
Track 15
Filename C:\Documents and Settings\td\Desktop\downloads\rips\Sam Cooke - Portrait of A Legend (1951-1964)\15 - Summertime.wav
Pre-gap length 0:00:02.02
Peak level 82.1 %
Track quality 100.0 %
Test CRC EC4E7A45
Copy CRC EC4E7A45
Copy OK
Track 16
Filename C:\Documents and Settings\td\Desktop\downloads\rips\Sam Cooke - Portrait of A Legend (1951-1964)\16 - Little Red Rooster.wav
Pre-gap length 0:00:02.89
Peak level 99.8 %
Track quality 100.0 %
Test CRC 1F611614
Copy CRC 1F611614
Copy OK
Track 17
Filename C:\Documents and Settings\td\Desktop\downloads\rips\Sam Cooke - Portrait of A Legend (1951-1964)\17 - Bring It On Home To Me.wav
Pre-gap length 0:00:01.62
Peak level 98.8 %
Track quality 100.0 %
Test CRC 71FDAA1D
Copy CRC 71FDAA1D
Copy OK
Track 18
Filename C:\Documents and Settings\td\Desktop\downloads\rips\Sam Cooke - Portrait of A Legend (1951-1964)\18 - Nothing Can Change This Love.wav
Pre-gap length 0:00:03.26
Peak level 99.8 %
Track quality 100.0 %
Test CRC A100DE89
Copy CRC A100DE89
Copy OK
Track 19
Filename C:\Documents and Settings\td\Desktop\downloads\rips\Sam Cooke - Portrait of A Legend (1951-1964)\19 - Sugar Dumpling.wav
Pre-gap length 0:00:02.73
Peak level 95.9 %
Track quality 100.0 %
Test CRC C923E0A6
Copy CRC C923E0A6
Copy OK
Track 20
Filename C:\Documents and Settings\td\Desktop\downloads\rips\Sam Cooke - Portrait of A Legend (1951-1964)\20 - (Ain't That) Good News.wav
Pre-gap length 0:00:02.50
Peak level 88.1 %
Track quality 100.0 %
Test CRC 639F473E
Copy CRC 639F473E
Copy OK
Track 21
Filename C:\Documents and Settings\td\Desktop\downloads\rips\Sam Cooke - Portrait of A Legend (1951-1964)\21 - Meet Me At Mary's Place.wav
Pre-gap length 0:00:02.54
Peak level 97.3 %
Track quality 99.9 %
Test CRC E304B27D
Copy CRC E304B27D
Copy OK
Track 22
Filename C:\Documents and Settings\td\Desktop\downloads\rips\Sam Cooke - Portrait of A Legend (1951-1964)\22 - Twistin' The Night Away.wav
Pre-gap length 0:00:02.00
Peak level 99.8 %
Track quality 100.0 %
Test CRC 28AEE288
Copy CRC 28AEE288
Copy OK
Track 23
Filename C:\Documents and Settings\td\Desktop\downloads\rips\Sam Cooke - Portrait of A Legend (1951-1964)\23 - Shake.wav
Pre-gap length 0:00:02.84
Peak level 99.4 %
Track quality 100.0 %
Test CRC 5151CE88
Copy CRC 5151CE88
Copy OK
Track 24
Filename C:\Documents and Settings\td\Desktop\downloads\rips\Sam Cooke - Portrait of A Legend (1951-1964)\24 - Tennessee Waltz.wav
Pre-gap length 0:00:03.60
Peak level 94.0 %
Track quality 100.0 %
Test CRC 8A3B3BCD
Copy CRC 8A3B3BCD
Copy OK
Track 25
Filename C:\Documents and Settings\td\Desktop\downloads\rips\Sam Cooke - Portrait of A Legend (1951-1964)\25 - Another Saturday Night.wav
Pre-gap length 0:00:02.30
Peak level 99.8 %
Track quality 100.0 %
Test CRC CAA42791
Copy CRC CAA42791
Copy OK
Track 26
Filename C:\Documents and Settings\td\Desktop\downloads\rips\Sam Cooke - Portrait of A Legend (1951-1964)\26 - Good Times.wav
Pre-gap length 0:00:02.13
Peak level 92.9 %
Track quality 99.9 %
Test CRC 9A304A78
Copy CRC 9A304A78
Copy OK
Track 27
Filename C:\Documents and Settings\td\Desktop\downloads\rips\Sam Cooke - Portrait of A Legend (1951-1964)\27 - Having A Party.wav
Pre-gap length 0:00:01.57
Peak level 99.8 %
Track quality 100.0 %
Test CRC 21A4D5EC
Copy CRC 21A4D5EC
Copy OK
Track 28
Filename C:\Documents and Settings\td\Desktop\downloads\rips\Sam Cooke - Portrait of A Legend (1951-1964)\28 - That's Where It's At.wav
Pre-gap length 0:00:02.33
Peak level 99.8 %
Track quality 100.0 %
Test CRC 4B67A76C
Copy CRC 4B67A76C
Copy OK
Track 29
Filename C:\Documents and Settings\td\Desktop\downloads\rips\Sam Cooke - Portrait of A Legend (1951-1964)\29 - A Change Is Gonna Come.wav
Pre-gap length 0:00:02.26
Peak level 96.1 %
Track quality 100.0 %
Test CRC E0E80A5A
Copy CRC E0E80A5A
Copy OK
Track 30
Filename C:\Documents and Settings\td\Desktop\downloads\rips\Sam Cooke - Portrait of A Legend (1951-1964)\30 - Jesus Gave Me Water.wav
Pre-gap length 0:00:02.26
Peak level 72.2 %
Track quality 100.0 %
Test CRC 9AB3E638
Copy CRC 9AB3E638
Copy OK
Track 31
Filename C:\Documents and Settings\td\Desktop\downloads\rips\Sam Cooke - Portrait of A Legend (1951-1964)\31 - Interview.wav
Pre-gap length 0:00:02.73
Peak level 64.0 %
Track quality 100.0 %
Test CRC 2990C957
Copy CRC 2990C957
Copy OK
No errors occured
End of status report
 
AccurateRip Database Check
[Verification date: 31.01.2010 17:31:33]
[Disc ID: 005730c5-078c47c6-bf12991f]
Track [ CRC ] Status
01 [d33822ab] (14/60) Accurately ripped as in pressing(s) #3
02 [db0fc631] (14/59) Accurately ripped as in pressing(s) #3
03 [669fca5f] (14/60) Accurately ripped as in pressing(s) #3
04 [72f3661d] (15/61) Accurately ripped as in pressing(s) #3
05 [34207bd8] (15/61) Accurately ripped as in pressing(s) #3
06 [7d11ebb4] (15/60) Accurately ripped as in pressing(s) #3
07 [ccc5a9bd] (15/61) Accurately ripped as in pressing(s) #3
08 [79752fb2] (15/61) Accurately ripped as in pressing(s) #3
09 [b873074f] (15/60) Accurately ripped as in pressing(s) #3
10 [ee19338b] (15/60) Accurately ripped as in pressing(s) #3
11 [3ce864a2] (15/60) Accurately ripped as in pressing(s) #3
12 [078df8f2] (15/61) Accurately ripped as in pressing(s) #3
13 [1d654847] (15/61) Accurately ripped as in pressing(s) #3
14 [c3d9fe23] (15/61) Accurately ripped as in pressing(s) #3
15 [dc02ad37] (15/60) Accurately ripped as in pressing(s) #3
16 [798d0f44] (14/59) Accurately ripped as in pressing(s) #3
17 [688531b8] (14/59) Accurately ripped as in pressing(s) #3
18 [fb8a998b] (15/60) Accurately ripped as in pressing(s) #3
19 [64b814c7] (15/60) Accurately ripped as in pressing(s) #3
20 [850bf631] (15/60) Accurately ripped as in pressing(s) #3
21 [88526fae] (15/60) Accurately ripped as in pressing(s) #3
22 [e6d9aa6f] (15/61) Accurately ripped as in pressing(s) #3
23 [50b13f37] (15/60) Accurately ripped as in pressing(s) #3
24 [80ca13b8] (15/60) Accurately ripped as in pressing(s) #3
25 [dbaf1c53] (15/62) Accurately ripped as in pressing(s) #3
26 [d5c0bee9] (15/60) Accurately ripped as in pressing(s) #3
27 [e8dc5e69] (15/61) Accurately ripped as in pressing(s) #3
28 [d035bcd6] (15/61) Accurately ripped as in pressing(s) #3
29 [124e9e24] (15/61) Accurately ripped as in pressing(s) #3
30 [c58a7759] (14/59) Accurately ripped as in pressing(s) #3
31 [0f8ad112] (14/59) Accurately ripped as in pressing(s) #3
Offsetted by 9:
01 [2ca87eb0] (24/60) Accurately ripped as in pressing(s) #1
02 [9b1eead1] (24/59) Accurately ripped as in pressing(s) #1
03 [32ea09c3] (24/60) Accurately ripped as in pressing(s) #1
04 [2d8c2085] (24/61) Accurately ripped as in pressing(s) #1
05 [8f5cee10] (24/61) Accurately ripped as in pressing(s) #1
06 [31f6fe51] (24/60) Accurately ripped as in pressing(s) #1
07 [32ef6063] (24/61) Accurately ripped as in pressing(s) #1
08 [7d5c58a2] (24/61) Accurately ripped as in pressing(s) #1
09 [5349dc11] (24/60) Accurately ripped as in pressing(s) #1
10 [ec47646e] (24/60) Accurately ripped as in pressing(s) #1
11 [bba89a4f] (24/60) Accurately ripped as in pressing(s) #1
12 [e2124132] (24/61) Accurately ripped as in pressing(s) #1
13 [40719cc5] (24/61) Accurately ripped as in pressing(s) #1
14 [5df0e78b] (24/61) Accurately ripped as in pressing(s) #1
15 [96934af4] (24/60) Accurately ripped as in pressing(s) #1
16 [b41ff50b] (24/59) Accurately ripped as in pressing(s) #1
17 [95bc69a9] (24/59) Accurately ripped as in pressing(s) #1
18 [b2194fc8] (24/60) Accurately ripped as in pressing(s) #1
19 [df88bde6] (24/60) Accurately ripped as in pressing(s) #1
20 [80126c50] (24/60) Accurately ripped as in pressing(s) #1
21 [51d069fe] (24/60) Accurately ripped as in pressing(s) #1
22 [3c08dbbf] (24/61) Accurately ripped as in pressing(s) #1
23 [85ece133] (24/60) Accurately ripped as in pressing(s) #1
24 [72a2fd4b] (24/60) Accurately ripped as in pressing(s) #1
25 [dd8d2a7a] (25/62) Accurately ripped as in pressing(s) #1
26 [1d02bfc7] (24/60) Accurately ripped as in pressing(s) #1
27 [d1975d49] (24/61) Accurately ripped as in pressing(s) #1
28 [87aab780] (24/61) Accurately ripped as in pressing(s) #1
29 [b70a2e3d] (25/61) Accurately ripped as in pressing(s) #1
30 [ad7d082d] (24/59) Accurately ripped as in pressing(s) #1
31 [fae1f942] (23/59) Accurately ripped as in pressing(s) #1
Offsetted by 27:
01 [df8936ba] (22/60) Accurately ripped as in pressing(s) #2
02 [1b3d3411] (21/59) Accurately ripped as in pressing(s) #2
03 [cb7e888b] (22/60) Accurately ripped as in pressing(s) #2
04 [a2bd9555] (22/61) Accurately ripped as in pressing(s) #2
05 [45d5d280] (22/61) Accurately ripped as in pressing(s) #2
06 [9bc1238b] (21/60) Accurately ripped as in pressing(s) #2
07 [ff42cdaf] (22/61) Accurately ripped as in pressing(s) #2
08 [852aaa82] (22/61) Accurately ripped as in pressing(s) #2
09 [88f78595] (21/60) Accurately ripped as in pressing(s) #2
10 [e8a3c634] (21/60) Accurately ripped as in pressing(s) #2
11 [b92905a9] (21/60) Accurately ripped as in pressing(s) #2
12 [971ad1b2] (22/61) Accurately ripped as in pressing(s) #2
13 [868a45c1] (22/61) Accurately ripped as in pressing(s) #2
14 [921eba5b] (22/61) Accurately ripped as in pressing(s) #2
15 [0bb4866e] (21/60) Accurately ripped as in pressing(s) #2
16 [2945c099] (21/59) Accurately ripped as in pressing(s) #2
17 [f02ad98b] (21/59) Accurately ripped as in pressing(s) #2
18 [1f36bc42] (21/60) Accurately ripped as in pressing(s) #2
19 [d52a1024] (21/60) Accurately ripped as in pressing(s) #2
20 [761f588e] (21/60) Accurately ripped as in pressing(s) #2
21 [e4cc5e9e] (21/60) Accurately ripped as in pressing(s) #2
22 [e6673e5f] (22/61) Accurately ripped as in pressing(s) #2
23 [f064252b] (21/60) Accurately ripped as in pressing(s) #2
24 [5654d071] (21/60) Accurately ripped as in pressing(s) #2
25 [e14946c8] (22/62) Accurately ripped as in pressing(s) #2
26 [ab86c183] (21/60) Accurately ripped as in pressing(s) #2
27 [a30d5b09] (22/61) Accurately ripped as in pressing(s) #2
28 [f694acd4] (22/61) Accurately ripped as in pressing(s) #2
29 [00814e6f] (21/61) Accurately ripped as in pressing(s) #2
30 [7d6229d5] (21/59) Accurately ripped as in pressing(s) #2
31 [d15b4a2b] (22/59) Accurately ripped as in pressing(s) #2
Track [ CRC32 ] [W/O NULL] [ LOG ]
-- [F42172F9] [B2294169]
01 [3F043E04] [473F393E] CRC32
02 [93418E19] [3A931D02] CRC32
03 [3844DD70] [4CF7016B] CRC32
04 [EF23E41A] [AA6E0AC4] CRC32
05 [FBF63DC9] [089F251C] CRC32
06 [626E5FA9] [64B41F40] CRC32
07 [5B9C8C13] [959CBC20] CRC32
08 [7B54E3C5] [F487F916] CRC32
09 [F45189AE] [1A23CB5C] CRC32
10 [873E546F] [CD4CD394] CRC32
11 [9563FCB7] [143D124A] CRC32
12 [AC862EEB] [8A54308D] CRC32
13 [ADD788A5] [41BAB586] CRC32
14 [8E101569] [606D8325] CRC32
15 [EC4E7A45] [62FF35A6] CRC32
16 [1F611614] [27089306] CRC32
17 [71FDAA1D] [41C9DFAD] CRC32
18 [A100DE89] [74FD9E68] CRC32
19 [C923E0A6] [29ECAC27] CRC32
20 [639F473E] [6721B288] CRC32
21 [E304B27D] [5278D278] CRC32
22 [28AEE288] [4CF7A601] CRC32
23 [5151CE88] [A02119D3] CRC32
24 [8A3B3BCD] [A4D018FA] CRC32
25 [CAA42791] [41C25B86] CRC32
26 [9A304A78] [2ADDFB4D] CRC32
27 [21A4D5EC] [051D5663] CRC32
28 [4B67A76C] [6C5DFBEC] CRC32
29 [E0E80A5A] [7637D0F9] CRC32
30 [9AB3E638] [23DF0D4C] CRC32
31 [2990C957] [CD93FEEA] CRC32
 
CUE Sheet
REM GENRE Soul
REM DATE 1960
REM DISCID BF12991F
REM COMMENT "ExactAudioCopy v0.95b4"
PERFORMER "Sam Cooke"
TITLE "Portrait of A Legend (1951-1964)"
FILE "01 - Touch The Hem of His Garment.wav" WAVE
TRACK 01 AUDIO
TITLE "Touch The Hem of His Garment"
PERFORMER "Sam Cooke"
INDEX 01 00:00:00
TRACK 02 AUDIO
TITLE "Lovable"
PERFORMER "Sam Cooke"
INDEX 00 02:01:20
FILE "02 - Lovable.wav" WAVE
INDEX 01 00:00:00
TRACK 03 AUDIO
TITLE "You Send Me"
PERFORMER "Sam Cooke"
INDEX 00 02:24:25
FILE "03 - You Send Me.wav" WAVE
INDEX 01 00:00:00
TRACK 04 AUDIO
TITLE "Only Sixteen"
PERFORMER "Sam Cooke"
INDEX 00 02:42:68
FILE "04 - Only Sixteen.wav" WAVE
INDEX 01 00:00:00
TRACK 05 AUDIO
TITLE "(I Love You) For Sentimental Reasons"
PERFORMER "Sam Cooke"
INDEX 00 02:01:47
FILE "05 - (I Love You) For Sentimental Reasons.wav" WAVE
INDEX 01 00:00:00
TRACK 06 AUDIO
TITLE "Just For You"
PERFORMER "Sam Cooke"
INDEX 00 02:37:48
FILE "06 - Just For You.wav" WAVE
INDEX 01 00:00:00
TRACK 07 AUDIO
TITLE "Win Your Love For Me"
PERFORMER "Sam Cooke"
INDEX 00 02:18:45
FILE "07 - Win Your Love For Me.wav" WAVE
INDEX 01 00:00:00
TRACK 08 AUDIO
TITLE "Everybody Loves To Cha Cha"
PERFORMER "Sam Cooke"
INDEX 00 02:45:50
FILE "08 - Everybody Loves To Cha Cha.wav" WAVE
INDEX 01 00:00:00
TRACK 09 AUDIO
TITLE "I'll Come Running Back To You"
PERFORMER "Sam Cooke"
INDEX 00 02:40:73
FILE "09 - I'll Come Running Back To You.wav" WAVE
INDEX 01 00:00:00
TRACK 10 AUDIO
TITLE "You Were Made For Me"
PERFORMER "Sam Cooke"
INDEX 00 02:12:48
FILE "10 - You Were Made For Me.wav" WAVE
INDEX 01 00:00:00
TRACK 11 AUDIO
TITLE "Sad Mood"
PERFORMER "Sam Cooke"
INDEX 00 02:53:12
FILE "11 - Sad Mood.wav" WAVE
INDEX 01 00:00:00
TRACK 12 AUDIO
TITLE "Cupid"
PERFORMER "Sam Cooke"
INDEX 00 02:38:45
FILE "12 - Cupid.wav" WAVE
INDEX 01 00:00:00
TRACK 13 AUDIO
TITLE "(What A) Wonderful World"
PERFORMER "Sam Cooke"
INDEX 00 02:35:72
FILE "13 - (What A) Wonderful World.wav" WAVE
INDEX 01 00:00:00
TRACK 14 AUDIO
TITLE "Chain Gang"
PERFORMER "Sam Cooke"
INDEX 00 02:06:57
FILE "14 - Chain Gang.wav" WAVE
INDEX 01 00:00:00
TRACK 15 AUDIO
TITLE "Summertime"
PERFORMER "Sam Cooke"
INDEX 00 02:34:25
FILE "15 - Summertime.wav" WAVE
INDEX 01 00:00:00
TRACK 16 AUDIO
TITLE "Little Red Rooster"
PERFORMER "Sam Cooke"
INDEX 00 02:20:23
FILE "16 - Little Red Rooster.wav" WAVE
INDEX 01 00:00:00
TRACK 17 AUDIO
TITLE "Bring It On Home To Me"
PERFORMER "Sam Cooke"
INDEX 00 02:52:13
FILE "17 - Bring It On Home To Me.wav" WAVE
INDEX 01 00:00:00
TRACK 18 AUDIO
TITLE "Nothing Can Change This Love"
PERFORMER "Sam Cooke"
INDEX 00 02:42:00
FILE "18 - Nothing Can Change This Love.wav" WAVE
INDEX 01 00:00:00
TRACK 19 AUDIO
TITLE "Sugar Dumpling"
PERFORMER "Sam Cooke"
INDEX 00 02:36:70
FILE "19 - Sugar Dumpling.wav" WAVE
INDEX 01 00:00:00
TRACK 20 AUDIO
TITLE "(Ain't That) Good News"
PERFORMER "Sam Cooke"
INDEX 00 02:42:50
FILE "20 - (Ain't That) Good News.wav" WAVE
INDEX 01 00:00:00
TRACK 21 AUDIO
TITLE "Meet Me At Mary's Place"
PERFORMER "Sam Cooke"
INDEX 00 02:28:09
FILE "21 - Meet Me At Mary's Place.wav" WAVE
INDEX 01 00:00:00
TRACK 22 AUDIO
TITLE "Twistin' The Night Away"
PERFORMER "Sam Cooke"
INDEX 00 02:41:27
FILE "22 - Twistin' The Night Away.wav" WAVE
INDEX 01 00:00:00
TRACK 23 AUDIO
TITLE "Shake"
PERFORMER "Sam Cooke"
INDEX 00 02:41:25
FILE "23 - Shake.wav" WAVE
INDEX 01 00:00:00
TRACK 24 AUDIO
TITLE "Tennessee Waltz"
PERFORMER "Sam Cooke"
INDEX 00 02:50:00
FILE "24 - Tennessee Waltz.wav" WAVE
INDEX 01 00:00:00
TRACK 25 AUDIO
TITLE "Another Saturday Night"
PERFORMER "Sam Cooke"
INDEX 00 03:09:27
FILE "25 - Another Saturday Night.wav" WAVE
INDEX 01 00:00:00
TRACK 26 AUDIO
TITLE "Good Times"
PERFORMER "Sam Cooke"
INDEX 00 02:40:00
FILE "26 - Good Times.wav" WAVE
INDEX 01 00:00:00
TRACK 27 AUDIO
TITLE "Having A Party"
PERFORMER "Sam Cooke"
INDEX 00 02:26:37
FILE "27 - Having A Party.wav" WAVE
INDEX 01 00:00:00
TRACK 28 AUDIO
TITLE "That's Where It's At"
PERFORMER "Sam Cooke"
INDEX 00 02:35:17
FILE "28 - That's Where It's At.wav" WAVE
INDEX 01 00:00:00
TRACK 29 AUDIO
TITLE "A Change Is Gonna Come"
PERFORMER "Sam Cooke"
INDEX 00 02:35:15
FILE "29 - A Change Is Gonna Come.wav" WAVE
INDEX 01 00:00:00
TRACK 30 AUDIO
TITLE "Jesus Gave Me Water"
PERFORMER "Sam Cooke"
INDEX 00 03:11:10
FILE "30 - Jesus Gave Me Water.wav" WAVE
INDEX 01 00:00:00
TRACK 31 AUDIO
TITLE "Interview"
PERFORMER "Sam Cooke"
INDEX 00 02:29:03
FILE "31 - Interview.wav" WAVE
INDEX 01 00:00:00
Приватный:
Нет (DHT включён)
Размер:
425.79 Мб (446,468,514 байт) » файлов: 38
Участники:
0 раздают, 0 качают (0 участников всего)
Внешние участники:
9 раздают, 3 качают (12 участников всего) [ Обновить ]
Никого нет на раздаче - пишите личное сообщение M0p94ok
No seeders - write personal message to M0p94ok
02:20
17
Нет комментариев. Ваш будет первым!