Поиск

(Funk / Soul) The Isley Brothers - Harvest For The World - 1976, FLAC (tracks+.cue), lossless

(Funk / Soul) The Isley Brothers - Harvest For The World - 1976, FLAC (tracks+.cue), lossless
Треклист:
The Isley Brothers - Harvest For The World
Жанр: Funk / Soul
Год выпуска диска: 1976
Аудио кодек: FLAC
Тип рипа: tracks+.cue
Битрейт аудио: lossless
Продолжительность: 0:45:40
Трэклист:
1. Harvest For The World (Prelude)
2. Harvest For The World
3. People Of Today
4. Who Loves You Better
5. (At Your Best) You Are Love
6. Let Me Down Easy
7. So You Wanna Stay Down
8. You Still Feel The Need
9. Summer Breeze (Live)
 
Лог EAC
EAC extraction logfile from 4. November 2007, 19:21 for CD
The Isley Brothers / Harvest For The World
Used drive : HL-DT-STDVDRAM GSA-4082B Adapter: 1 ID: 1
Read mode : Secure with NO C2, accurate stream, disable cache
Read offset correction : 667
Overread into Lead-In and Lead-Out : No
Used output format : C:\Program Files\FLAC\flac.exe (User Defined Encoder)
128 kBit/s
Additional command line options : -V -8 -T "artist=%a" -T "title=%t" -T "album=%g" -T "date=%y" -T "tracknumber=%n" -T "genre=%m" %s
Other options :
Fill up missing offset samples with silence : Yes
Delete leading and trailing silent blocks : No
Native Win32 interface for Win NT & 2000
Track 1
Filename C:\Documents and Settings\USER\Desktop\New Folder\01 - Harvest For The World (Prelude).wav
Pre-gap length 0:00:02.00
Peak level 99.8 %
Track quality 99.9 %
Test CRC E9B525E4
Copy CRC E9B525E4
Copy OK
Track 2
Filename C:\Documents and Settings\USER\Desktop\New Folder\02 - Harvest For The World.wav
Peak level 99.9 %
Track quality 100.0 %
Test CRC 84B9DB3C
Copy CRC 84B9DB3C
Copy OK
Track 3
Filename C:\Documents and Settings\USER\Desktop\New Folder\03 - People Of Today.wav
Peak level 99.9 %
Track quality 100.0 %
Test CRC F1EBAC8E
Copy CRC F1EBAC8E
Copy OK
Track 4
Filename C:\Documents and Settings\USER\Desktop\New Folder\04 - Who Loves You Better.wav
Peak level 99.8 %
Track quality 100.0 %
Test CRC C505CF6C
Copy CRC C505CF6C
Copy OK
Track 5
Filename C:\Documents and Settings\USER\Desktop\New Folder\05 - (At Your Best) You Are Love.wav
Peak level 99.8 %
Track quality 100.0 %
Test CRC E412B736
Copy CRC E412B736
Copy OK
Track 6
Filename C:\Documents and Settings\USER\Desktop\New Folder\06 - Let Me Down Easy.wav
Peak level 99.8 %
Track quality 100.0 %
Test CRC 3B0C2804
Copy CRC 3B0C2804
Copy OK
Track 7
Filename C:\Documents and Settings\USER\Desktop\New Folder\07 - So You Wanna Stay Down.wav
Peak level 99.8 %
Track quality 100.0 %
Test CRC 5CE7ED89
Copy CRC 5CE7ED89
Copy OK
Track 8
Filename C:\Documents and Settings\USER\Desktop\New Folder\08 - You Still Feel The Need.wav
Peak level 99.9 %
Track quality 99.9 %
Test CRC C57AB0F0
Copy CRC C57AB0F0
Copy OK
Track 9
Filename C:\Documents and Settings\USER\Desktop\New Folder\09 - Summer Breeze (Live).wav
Pre-gap length 0:00:01.69
Peak level 99.8 %
Track quality 100.0 %
Test CRC 55F22B51
Copy CRC 55F22B51
Copy OK
No errors occured
End of status report
 
Audiochecker log
AUDIOCHECKER v2.0 beta (build 457) - by Dester - opdester@freemail.hu
~~~~~~~~~~~~~~~~~~~~~~~~~~~~~~~~~~
-=== DO NOT EDIT THIS FILE! ===-
Path: ...\The Isley Brothers - 1976 - Harvest For The World
1 -=- 01 - The Isley Brothers - Harvest For The World (Prelude) - 1976.flac -=- CDDA (100%)
2 -=- 02 - The Isley Brothers - Harvest For The World - 1976.flac -=- CDDA (100%)
3 -=- 03 - The Isley Brothers - People Of Today - 1976.flac -=- CDDA (100%)
4 -=- 04 - The Isley Brothers - Who Loves You Better - 1976.flac -=- CDDA (100%)
5 -=- 05 - The Isley Brothers - (At Your Best) You Are Love - 1976.flac -=- CDDA (100%)
6 -=- 06 - The Isley Brothers - Let Me Down Easy - 1976.flac -=- CDDA (99%)
7 -=- 07 - The Isley Brothers - So You Wanna Stay Down - 1976.flac -=- CDDA (100%)
8 -=- 08 - The Isley Brothers - You Still Feel The Need - 1976.flac -=- CDDA (100%)
9 -=- 09 - The Isley Brothers - Summer Breeze (Live) - 1976.flac -=- CDDA (99%)
Summary 99,78% CDDA
26100228
Приватный:
Нет (DHT включён)
Размер:
302.97 Мб (317,688,313 байт) » файлов: 16
Участники:
0 раздают, 0 качают (0 участников всего)
Внешние участники:
--- [ Обновить ]
Никого нет на раздаче - пишите личное сообщение M0p94ok
No seeders - write personal message to M0p94ok
02:21
19
Нет комментариев. Ваш будет первым!