Поиск

(Funk, Jazz, Disco) Kool & The Gang - The Hits Reloaded (2CD) - 2004, FLAC (image+.cue), lossless

(Funk, Jazz, Disco) Kool & The Gang - The Hits Reloaded (2CD) - 2004, FLAC (image+.cue), lossless
Треклист:
Kool & The Gang - The Hits Reloaded (2CD)
Жанр: Funk, Jazz, Disco
Год выпуска диска: 2004
Производитель диска: Germany
Аудио кодек: FLAC
Тип рипа: image+.cue
Битрейт аудио: lossless
Продолжительность: 01:51:18
Трэклист:
CD1
01. Ladies Night (Feat. Atomic Kitten)
02. Get Down On It (Feat. Blue And Lil Kim)
03. Fresh (Feat. Liberty X)
04. Cherish (Feat. Ashanti)
05. Celebration (Feat. Lulu)
06. Joanna (Feat. Blazin Squad)
07. Too Hot (Feat. Lisa Stansfield)
08. Let's Go Dancin' (Ooh La, La, La) (Feat. Jimmy Cliff And Bounty Killer)
09. Straight Ahead (Feat. Jamelia)
11. Hollywood Swinging (Feat. Jamiroquai)
12. Stressin'
13. Jones Vs. Jones (Feat. Angie Stone)
14. Summer Madness (Feat. Youssou NDour)
CD2
01. Jungle Boogie (Feat. Redman)
02. Funky Stuff (Feat. Big Brovaz)
03. Take My Heart (You Can Have It If You Want It) (Feat. Blu Cantrell)
04. Ladies' Night (Feat. Spanner Banner And Saun Paul)
05. Where Da Boogie At (Feat. R.O.C And Da Prince Hakim)
06. In The Heart (Feat. D-Side)
07. No Show (Feat. Blackstreet)
08. Bigg Thangs (Feat. Da Prince Hakim)
09. Jazziacs At The Cool Jazz Café
10. Jungle In My House (Feat. FM And Rachid)
11. Misled (Feat. Tony Hadley)
12. Tonight (Feat. Indi Gregg)
13. Cherish (Feat. Natural)
14. Serious (Feat. Xavier Naidoo And Mousse T.)
Доп. информация:
 
Log EAC CD1
Exact Audio Copy V0.99 prebeta 5 from 4. May 2009
Отчёт EAC об извлечении, выполненном 13. января 2010, 18:58
Kool & The Gang / The Hits - Reloaded (CD 1)
Дисковод: MATSHITAUJDA755 DVD/CDRW Adapter: 1 ID: 0
Режим чтения : Достоверность
Использование точного потока : Да
Отключение кэша аудио : Да
Использование указателей C2 : Нет
Коррекция смещения при чтении : 102
Способность читать области Lead-in и Lead-out : Нет
Заполнение пропущенных сэмплов тишиной : Да
Удаление блоков с тишиной в начале и конце : Нет
При вычислениях CRC использовались нулевые сэмплы : Да
Интерфейс : Встроенный Win32-интерфейс для Win NT/2000
Выходной формат : Пользовательский кодировщик
Выбранный битрейт : 768 kBit/s
Качество : Высокий
Добавление ID3-тэга : Нет
Утилита сжатия : C:\Program Files\Exact Audio Copy\FLAC\FLAC.EXE
Дополнительные параметры : -8 -V %s
TOC извлечённого CD
Трек | Старт | Длительность | Начальный сектор | Конечный сектор
---------------------------------------------------------------------
1 | 0:00.00 | 3:13.50 | 0 | 14524
2 | 3:13.50 | 4:15.33 | 14525 | 33682
3 | 7:29.08 | 3:08.33 | 33683 | 47815
4 | 10:37.41 | 4:26.15 | 47816 | 67780
5 | 15:03.56 | 4:13.38 | 67781 | 86793
6 | 19:17.19 | 4:10.47 | 86794 | 105590
7 | 23:27.66 | 4:30.30 | 105591 | 125870
8 | 27:58.21 | 4:40.65 | 125871 | 146935
9 | 32:39.11 | 3:30.62 | 146936 | 162747
10 | 36:09.73 | 4:17.16 | 162748 | 182038
11 | 40:27.14 | 4:14.29 | 182039 | 201117
12 | 44:41.43 | 4:47.08 | 201118 | 222650
13 | 49:28.51 | 4:46.31 | 222651 | 244131
14 | 54:15.07 | 4:03.34 | 244132 | 262390
15 | 60:50.41 | 18:37.34 | 273791 | 357599
Характеристики диапазона извлечения и сообщения об ошибках
Выбранный диапазон
Имя файла G:\FLACи\Kool & The Gang - The Hits Reloaded (2CD)\CD 1\Kool & The Gang - The Hits - Reloaded (CD 1).wav
Пиковый уровень 100.0 %
Качество диапазона 100.0 %
CRC теста 0E3A96FA
CRC копии 0E3A96FA
Копирование... OK
Ошибок не произошло
AccurateRip: сводка
Трек 1 точное извлечение (доверие 7) [C315A2CF]
Трек 2 точное извлечение (доверие 7) [5B3C4E56]
Трек 3 точное извлечение (доверие 7) [93F6536F]
Трек 4 точное извлечение (доверие 7) [6EC8F546]
Трек 5 точное извлечение (доверие 7) [13696E6F]
Трек 6 точное извлечение (доверие 7) [76631BBF]
Трек 7 точное извлечение (доверие 7) [2928C0F9]
Трек 8 точное извлечение (доверие 6) [BEB7DEFE]
Трек 9 точное извлечение (доверие 6) [831005A5]
Трек 10 точное извлечение (доверие 7) [56F8DB87]
Трек 11 точное извлечение (доверие 7) [3F3185C3]
Трек 12 точное извлечение (доверие 7) [0B7FC1B6]
Трек 13 точное извлечение (доверие 6) [FEC53AD6]
Трек 14 точное извлечение (доверие 6) [6BF1B733]
Все треки извлечены точно
Конец отчёта
 
Log EAC CD2
Exact Audio Copy V0.99 prebeta 5 from 4. May 2009
Отчёт EAC об извлечении, выполненном 13. января 2010, 19:29
Kool & The Gang / The Hits - Reloaded (CD 2)
Дисковод: MATSHITAUJDA755 DVD/CDRW Adapter: 1 ID: 0
Режим чтения : Достоверность
Использование точного потока : Да
Отключение кэша аудио : Да
Использование указателей C2 : Нет
Коррекция смещения при чтении : 102
Способность читать области Lead-in и Lead-out : Нет
Заполнение пропущенных сэмплов тишиной : Да
Удаление блоков с тишиной в начале и конце : Нет
При вычислениях CRC использовались нулевые сэмплы : Да
Интерфейс : Встроенный Win32-интерфейс для Win NT/2000
Выходной формат : Пользовательский кодировщик
Выбранный битрейт : 768 kBit/s
Качество : Высокий
Добавление ID3-тэга : Нет
Утилита сжатия : C:\Program Files\Exact Audio Copy\FLAC\FLAC.EXE
Дополнительные параметры : -8 -V %s
TOC извлечённого CD
Трек | Старт | Длительность | Начальный сектор | Конечный сектор
---------------------------------------------------------------------
1 | 0:00.00 | 3:23.00 | 0 | 15224
2 | 3:23.00 | 3:25.36 | 15225 | 30635
3 | 6:48.36 | 4:04.12 | 30636 | 48947
4 | 10:52.48 | 3:38.58 | 48948 | 65355
5 | 14:31.31 | 3:39.12 | 65356 | 81792
6 | 18:10.43 | 3:12.16 | 81793 | 96208
7 | 21:22.59 | 4:58.53 | 96209 | 118611
8 | 26:21.37 | 4:09.56 | 118612 | 137342
9 | 30:31.18 | 6:12.30 | 137343 | 165272
10 | 36:43.48 | 4:06.15 | 165273 | 183737
11 | 40:49.63 | 4:09.65 | 183738 | 202477
12 | 44:59.53 | 3:14.01 | 202478 | 217028
13 | 48:13.54 | 4:33.66 | 217029 | 237569
14 | 52:47.45 | 4:28.34 | 237570 | 257703
15 | 59:48.04 | 19:39.71 | 269104 | 357599
Характеристики диапазона извлечения и сообщения об ошибках
Выбранный диапазон
Имя файла G:\FLACи\Kool & The Gang - The Hits Reloaded (2CD)\CD 2\Kool & The Gang - The Hits - Reloaded (CD 2).wav
Пиковый уровень 100.0 %
Качество диапазона 100.0 %
CRC теста 5684156F
CRC копии 5684156F
Копирование... OK
Ошибок не произошло
AccurateRip: сводка
Трек 1 точное извлечение (доверие 6) [DB4BB797]
Трек 2 точное извлечение (доверие 6) [CAB96B12]
Трек 3 точное извлечение (доверие 6) [4C82A02E]
Трек 4 точное извлечение (доверие 6) [D02F43F9]
Трек 5 точное извлечение (доверие 6) [E5DDE5A2]
Трек 6 точное извлечение (доверие 6) [66C7F1B2]
Трек 7 точное извлечение (доверие 6) [1A85B13A]
Трек 8 точное извлечение (доверие 6) [B72BFD54]
Трек 9 точное извлечение (доверие 6) [3F346401]
Трек 10 точное извлечение (доверие 6) [5D2A1DB9]
Трек 11 точное извлечение (доверие 6) [F9812004]
Трек 12 точное извлечение (доверие 6) [10DFABA3]
Трек 13 точное извлечение (доверие 6) [6DCAE531]
Трек 14 точное извлечение (доверие 6) [E6E5C516]
Все треки извлечены точно
Конец отчёта
Приватный:
Нет (DHT включён)
Размер:
838.10 Мб (878,809,969 байт) » файлов: 10
Участники:
0 раздают, 0 качают (0 участников всего)
Внешние участники:
--- [ Обновить ]
Никого нет на раздаче - пишите личное сообщение M0p94ok
No seeders - write personal message to M0p94ok
02:11
20
Нет комментариев. Ваш будет первым!