Поиск

(Hip Hop, Funk, Soul, RnB, Swing) James Brown - Universal James - 1992, FLAC (tracks+.cue), lossless

(Hip Hop, Funk, Soul, RnB, Swing) James Brown - Universal James - 1992, FLAC (tracks+.cue), lossless
Треклист:
James Brown - Universal James
Жанр: Hip Hop, Funk, Soul, RnB, Swing
Страна-производитель диска (релиза): UK
Год издания: 1992
Издатель (лейбл): Scotti Bros. Records
Номер по каталогу: 514 329-2
Аудио кодек: FLAC
Тип рипа: tracks+.cue
Битрейт аудио: lossless
Продолжительность: 49:31
Трэклист:
01 - Can't Get Any Harder - 3:55
02 - Just Do It - 4:37
03 - Mine All Mine - 4:16
04 - Watch Me - 3:58
05 - Georgia-Lina - 5:05
06 - Show Me Your Friends - 5:04
07 - Everybody's Got A Thang - 3:58
08 - How Long - 5:29
09 - Make It Funky 2000 - 4:52
10 - Moments - 8:05
Доп. информация:
Все мои альбомы-оригиналы.
 
EAC
EAC extraction logfile from 11. December 2009, 12:22 for CD
James Brown / Universal James
Used drive : LITE-ON CD-RW SOHR-5238S Adapter: 1 ID: 0
Read mode : Secure with NO C2, accurate stream, disable cache
Read offset correction : 6
Overread into Lead-In and Lead-Out : Yes
Used output format : C:\Program Files\MediaCoder\codecs\flac.exe (User Defined Encoder)
192 kBit/s
Additional command line options : ?8 ?V ?T "ARTIST=%a" ?T "TITLE=%t" ?T "ALBUM=%g" ?T "DATE=%y" ?T "TRACKNUMBER=%n" ?T "GENRE=%m" ?T "COMMENT=EAC FLAC ?8" %s
Other options :
Fill up missing offset samples with silence : Yes
Delete leading and trailing silent blocks : No
Installed external ASPI interface
Track 1
Filename F:\Torrents CD\James Brown - Universal James - 1992[Scotti Bross Records]U.K\01 - Can't Get Any Harder .wav
Pre-gap length 0:00:02.42
Peak level 100.0 %
Track quality 99.9 %
Test CRC 70A8A84F
Copy CRC 70A8A84F
Copy OK
Track 2
Filename F:\Torrents CD\James Brown - Universal James - 1992[Scotti Bross Records]U.K\02 - Just Do It .wav
Peak level 100.0 %
Track quality 99.9 %
Test CRC AFE9F2AA
Copy CRC AFE9F2AA
Copy OK
Track 3
Filename F:\Torrents CD\James Brown - Universal James - 1992[Scotti Bross Records]U.K\03 - Mine All Mine .wav
Peak level 96.9 %
Track quality 100.0 %
Test CRC 14DF6FA5
Copy CRC 14DF6FA5
Copy OK
Track 4
Filename F:\Torrents CD\James Brown - Universal James - 1992[Scotti Bross Records]U.K\04 - Watch Me .wav
Peak level 100.0 %
Track quality 100.0 %
Test CRC 804457EA
Copy CRC 804457EA
Copy OK
Track 5
Filename F:\Torrents CD\James Brown - Universal James - 1992[Scotti Bross Records]U.K\05 - Georgia-Lina .wav
Peak level 100.0 %
Track quality 99.9 %
Test CRC 026E7183
Copy CRC 026E7183
Copy OK
Track 6
Filename F:\Torrents CD\James Brown - Universal James - 1992[Scotti Bross Records]U.K\06 - Show Me Your Friends .wav
Peak level 100.0 %
Track quality 100.0 %
Test CRC 5DC64BA6
Copy CRC 5DC64BA6
Copy OK
Track 7
Filename F:\Torrents CD\James Brown - Universal James - 1992[Scotti Bross Records]U.K\07 - Everybody's Got A Thang .wav
Peak level 100.0 %
Track quality 100.0 %
Test CRC 74023729
Copy CRC 74023729
Copy OK
Track 8
Filename F:\Torrents CD\James Brown - Universal James - 1992[Scotti Bross Records]U.K\08 - How Long .wav
Peak level 100.0 %
Track quality 100.0 %
Test CRC 62494C60
Copy CRC 62494C60
Copy OK
Track 9
Filename F:\Torrents CD\James Brown - Universal James - 1992[Scotti Bross Records]U.K\09 - Make It Funky 2000 .wav
Peak level 100.0 %
Track quality 100.0 %
Test CRC 46D13B3B
Copy CRC 46D13B3B
Copy OK
Track 10
Filename F:\Torrents CD\James Brown - Universal James - 1992[Scotti Bross Records]U.K\10 - Moments .wav
Peak level 100.0 %
Track quality 100.0 %
Test CRC 02299B6B
Copy CRC 02299B6B
Copy OK
No errors occured
End of status report
 
Состав
Featuring:
James Brown - lead vocals
Will Movat - keyboards
Tyrell Santiel - percussion
Luis Jardim - percussion
Glenn Nightingal - guitar
Carl James - bass
Greg Harewood - bass
Michael Hunter - trumpet
Patrick Tenyue - trumpet
Herry"Buttons"Tenyue - trombone
Michael Fahn - trombone
Gary Barnacle - sax
Michael"Bami"Rose - sax & flute
Carl Denson - sax,flute
Bazil Meade - backing vocal
Lamya Al-Mugheiry - backing vocal
James Brown,Reginald D.Simmons,Jimmy Lee Moore,Cynthia Moore,Alisa Anderson,Lisa
Rushton,Martha High-Harvin,Arthur Dickson,Jerry Poindexter,George Neely,Ron Laster,St.Clair
Pinkney - background vocal
Приватный:
Нет (DHT включён)
Размер:
362.66 Мб (380,280,417 байт) » файлов: 18
Участники:
0 раздают, 0 качают (0 участников всего)
Внешние участники:
3 раздают, 1 качают (4 участников всего) [ Обновить ]
Никого нет на раздаче - пишите личное сообщение M0p94ok
No seeders - write personal message to M0p94ok
02:11
17
Нет комментариев. Ваш будет первым!