Поиск

(Soul/Soft Rock) Roberta Flack — Chapter Two - 1970, FLAC (image+.cue), lossless

(Soul/Soft Rock) Roberta Flack — Chapter Two - 1970, FLAC (image+.cue), lossless
Треклист:
Roberta Flack — Chapter Two
Жанр: Soul/Soft Rock
Год выпуска диска: 1970
Производитель диска: USA (Atlantic)
Аудио кодек: FLAC
Тип рипа: image+.cue
Битрейт аудио: lossless
Продолжительность: 38:22
Трэклист:
01. Reverend Lee 04:32
02. Do What You Gotta Do 04:10
03. Just Like A Woman 06:15
04. Let It Be Me 04:59
05. Gone Away 05:16
06. Until It's Time For You To Go 04:59
07. The Impossible Dream 04:42
08. Business Goes On As Usual 03:25
 
отчёт ЕАС
Exact Audio Copy V0.99 prebeta 4 from 23. January 2008
Отчёт EAC об извлечении, выполненном 10. января 2010, 1:40
Roberta Flack / Chapter Two
Дисковод: Optiarc DVD RW AD-7203S Adapter: 1 ID: 1
Режим чтения : Достоверность
Использование точного потока : Да
Отключение кэша аудио : Да
Использование указателей C2 : Нет
Коррекция смещения при чтении : 48
Способность читать области Lead-in и Lead-out : Нет
Заполнение пропущенных сэмплов тишиной : Да
Удаление блоков с тишиной в начале и конце : Нет
При вычислениях CRC использовались нулевые сэмплы : Да
Интерфейс : Встроенный Win32-интерфейс для Win NT/2000
Выходной формат : Пользовательский кодировщик
Выбранный битрейт : 1024 kBit/s
Качество : Высокий
Добавление ID3-тэга : Нет
Утилита сжатия : C:\Program Files\Exact Audio Copy\Flac\flac.exe
Дополнительные параметры : -V -8 -T "artist=%a" -T "title=%t" -T "album=%g" -T "date=%y" -T "tracknumber=%n" -T "genre=%m" %s
TOC извлечённого CD
Трек | Старт | Длительность | Начальный сектор | Конечный сектор
---------------------------------------------------------------------
1 | 0:00.32 | 4:32.65 | 32 | 20496
2 | 4:33.22 | 4:10.20 | 20497 | 39266
3 | 8:43.42 | 6:15.73 | 39267 | 67464
4 | 14:59.40 | 4:59.52 | 67465 | 89941
5 | 19:59.17 | 5:16.63 | 89942 | 113704
6 | 25:16.05 | 4:59.00 | 113705 | 136129
7 | 30:15.05 | 4:42.05 | 136130 | 157284
8 | 34:57.10 | 3:25.70 | 157285 | 172729
Характеристики диапазона извлечения и сообщения об ошибках
Выбранный диапазон
Имя файла D:\EAC-FOLDER\1970-Roberta Flack - Chapter Two\1970-Roberta Flack - Chapter Two\Roberta Flack - Chapter Two.wav
Пиковый уровень 93.6 %
Качество диапазона 100.0 %
CRC теста FD07CF90
CRC копии FD07CF90
Копирование... OK
Ошибок не произошло
AccurateRip: сводка
Трек 1 точное извлечение (доверие 2) [C3C845BA]
Трек 2 точное извлечение (доверие 2) [913F5007]
Трек 3 точное извлечение (доверие 2) [057EFB59]
Трек 4 точное извлечение (доверие 2) [E7377242]
Трек 5 точное извлечение (доверие 2) [C71A6CE2]
Трек 6 точное извлечение (доверие 2) [CF97E261]
Трек 7 точное извлечение (доверие 2) [F94CCF63]
Трек 8 точное извлечение (доверие 2) [28131B9E]
Все треки извлечены точно
Конец отчёта
Доп. информация:

Из классики жанра.
Второй сольник Роберты. Аранжировки делали Деодадо и, конечно же, Данни Хэтувэй.
Среди участников Эрик Гейл (гитара) и Хьюберт Лоуз (флейта).
Можно смело включать и в дискографию Данни.
PS Рип свой, внутри сканы.
Приватный:
Да (DHT отключён)
Размер:
205.93 Мб (215,930,770 байт) » файлов: 7
Участники:
0 раздают, 0 качают (0 участников всего)
Внешние участники:
1 раздают, 0 качают (1 участников всего) [ Обновить ]
Никого нет на раздаче - пишите личное сообщение M0p94ok
No seeders - write personal message to M0p94ok
02:07
33
Нет комментариев. Ваш будет первым!