Поиск

(Soul/Funk,Hip Hop,Rap) [CD] Coolooloosh (Rebel Sun,Lucille Crew) - Elements Of Sound - 2008, FLAC (image+.cue), lossless

(Soul/Funk,Hip Hop,Rap) [CD] Coolooloosh (Rebel Sun,Lucille Crew) - Elements Of Sound - 2008, FLAC (image+.cue), lossless
Треклист:
Coolooloosh / Elements Of Sound
Жанр: Soul/Funk,Hip Hop,Rap,Rock,Klezmer
Носитель: CD
Страна-производитель диска (релиза): Israel
Год издания: 2008
Издатель (лейбл): Cool oo loosh Records/High Fidelity LTD
Номер по каталогу: -
Страна исполнителя (группы): Israel/US
Аудиокодек: FLAC (*.flac)
Тип рипа: image+.cue
Битрейт аудио: lossless
Продолжительность: 00:44:10
Источник (релизер): собственный рип
Наличие сканов в содержимом раздачи: нет
Треклист:
1 Elements Of Sound
2 Music Business
3 People Of The Street
4 Metro
5 Some Place (Featuring Bunny Sigler)
6 Fall (Featuring Rebecca Kanter)
7 Just Won`t Stop (Intro)
8 Just Won`t Stop
9 Lock Your Doors
10 Yeah Yeah Yeah (Featuring Bunny Sigler)
11 Until The Day (Featuring David Ivory)
12 Mind And Soul
 
Лог создания рипа
Exact Audio Copy V1.1 from 23. June 2015
EAC extraction logfile from 23. September 2015, 3:23
Coolooloosh / Elements Of Sound
Used drive : TSSTcorpCDDVDW TS-L633C Adapter: 1 ID: 0
Read mode : Secure
Utilize accurate stream : Yes
Defeat audio cache : Yes
Make use of C2 pointers : No
Read offset correction : 6
Overread into Lead-In and Lead-Out : No
Fill up missing offset samples with silence : Yes
Delete leading and trailing silent blocks : No
Null samples used in CRC calculations : Yes
Used interface : Native Win32 interface for Win NT & 2000
Used output format : User Defined Encoder
Selected bitrate : 768 kBit/s
Quality : High
Add ID3 tag : No
Command line compressor : C:\Program Files (x86)\Exact Audio Copy\Flac\flac.exe
Additional command line options : -V -8 -T "Date=%year%" -T "Genre=%genre%" %source%
TOC of the extracted CD
Track | Start | Length | Start sector | End sector
---------------------------------------------------------
1 | 0:00.00 | 2:25.02 | 0 | 10876
2 | 2:25.02 | 3:49.36 | 10877 | 28087
3 | 6:14.38 | 2:35.65 | 28088 | 39777
4 | 8:50.28 | 3:57.37 | 39778 | 57589
5 | 12:47.65 | 4:36.71 | 57590 | 78360
6 | 17:24.61 | 4:10.02 | 78361 | 97112
7 | 21:34.63 | 0:48.28 | 97113 | 100740
8 | 22:23.16 | 4:54.08 | 100741 | 122798
9 | 27:17.24 | 3:18.09 | 122799 | 137657
10 | 30:35.33 | 4:09.45 | 137658 | 156377
11 | 34:45.03 | 5:40.14 | 156378 | 181891
12 | 40:25.17 | 3:45.09 | 181892 | 198775
Range status and errors
Selected range
Filename C:\Users\Xylenefree\Music\12.RIPS\Coolooloosh - Elements Of Sound.wav
Peak level 100.0 %
Extraction speed 4.3 X
Range quality 99.9 %
Test CRC ABD4465A
Copy CRC ABD4465A
Copy OK
No errors occurred
AccurateRip summary
Track 1 cannot be verified as accurate (confidence 1) [6C3126F5], AccurateRip returned [12A178C4] (AR v2)
Track 2 cannot be verified as accurate (confidence 1) [127D4038], AccurateRip returned [C3D32C50] (AR v2)
Track 3 cannot be verified as accurate (confidence 1) [8B32A017], AccurateRip returned [CD43AC34] (AR v2)
Track 4 cannot be verified as accurate (confidence 1) [03512F1C], AccurateRip returned [2B322C97] (AR v2)
Track 5 cannot be verified as accurate (confidence 1) [310758E6], AccurateRip returned [6FD0BE15] (AR v2)
Track 6 cannot be verified as accurate (confidence 1) [AD157017], AccurateRip returned [A0980D57] (AR v2)
Track 7 cannot be verified as accurate (confidence 1) [7A2D4892], AccurateRip returned [A6C20C53] (AR v2)
Track 8 cannot be verified as accurate (confidence 1) [563E1444], AccurateRip returned [4B7E27C9] (AR v2)
Track 9 cannot be verified as accurate (confidence 1) [006EA94F], AccurateRip returned [05B6FE5A] (AR v2)
Track 10 cannot be verified as accurate (confidence 1) [D9DEAC16], AccurateRip returned [82CF8585] (AR v2)
Track 11 cannot be verified as accurate (confidence 1) [A42E5920], AccurateRip returned [CC324CE8] (AR v2)
Track 12 cannot be verified as accurate (confidence 1) [282904CA], AccurateRip returned [CD2E1BE0] (AR v2)
No tracks could be verified as accurate
You may have a different pressing from the one(s) in the database
End of status report
---- CUETools DB Plugin V2.1.6
[CTDB TOCID: bAV9Q33Mm1yac.7vrCL4Yz_wqNs-] found
Submit result: bAV9Q33Mm1yac.7vrCL4Yz_wqNs- has been confirmed
Track | CTDB Status
1 | (1/1) Accurately ripped
2 | (1/1) Accurately ripped
3 | (1/1) Accurately ripped
4 | (1/1) Accurately ripped
5 | (1/1) Accurately ripped
6 | (1/1) Accurately ripped
7 | (1/1) Accurately ripped
8 | (1/1) Accurately ripped
9 | (1/1) Accurately ripped
10 | (1/1) Accurately ripped
11 | (1/1) Accurately ripped
12 | (1/1) Accurately ripped
==== Log checksum 8112D851BF2CF2D881216EF36B06F83AEEB6E810DAFCF27028CBC610276C5A95 ====
 
Об альбоме (сборнике)
Produced by David Ivory (worked on albums by Erykah Badu, Patty LaBelle,The Roots,Kindred The Family Soul,Zap Mama,Syleena Johnson,Toshi Kubota,Jazzyfatnastees...)
 
Состав
Rebel Sun-poetry & rhymes,Yuval Gerstein - guitar,vocals,sazbush,Ori Winokur - bass,back vocal,keyboard,Yogev Shitrit - drums,Arik Levy - soprano,alto,tenor,baritone saxophones
Приватный:
Нет (DHT включён)
Размер:
300.10 Мб (314,673,593 байт) » файлов: 7
Участники:
0 раздают, 0 качают (0 участников всего)
Внешние участники:
1 раздают, 0 качают (1 участников всего) [ Обновить ]
No seeders - write personal message to user M0p94ok. Нет сидеров - пишите личное сообщение пользователю M0p94ok.
08:03
70
Нет комментариев. Ваш будет первым!