Поиск

(Soul/Funk,Hip Hop,Rap,House,Klezmer) [CD] Coolooloosh (Rebel Sun,Lucille Crew,Markey Funk,Soulico) - Remixed - 2010, FLAC (image+.cue), lossless

(Soul/Funk,Hip Hop,Rap,House,Klezmer) [CD] Coolooloosh (Rebel Sun,Lucille Crew,Markey Funk,Soulico) - Remixed - 2010, FLAC (image+.cue), lossless
Треклист:
Coolooloosh / Remixed
Жанр: Soul/Funk,Hip Hop,Rap,House,Klezmer
Носитель: CD
Страна-производитель диска (релиза): Israel
Год издания: 2010
Издатель (лейбл): Cool oo loosh Records/High Fidelity LTD
Номер по каталогу: -
Страна исполнителя (группы): Israel/US
Аудиокодек: FLAC (*.flac)
Тип рипа: image+.cue
Битрейт аудио: lossless
Продолжительность: 00:43:51
Источник (релизер): собственный рип
Наличие сканов в содержимом раздачи: нет
Треклист:
1 Always (feat. Bunny Singler and Ellan Covington)
2 Elements of Sound-Until The Day (Ori Winokur Remix)
3 People On The Street (Sabo Remix)
4 Music Business (DJUVRay Remix)
5 Metro (Dedi Man Cohen Remix)
6 Until The Day (Beno Hendler Remix)
7 Just Wont Stop (Agitacao Popular Remix by Markey Funk)
8 Elements Of Sound (Ijo & Shalter Remix)
9 People On The Streets (Ori Winokur Remix)
10 Lock Your Doors (Yonatan ''Johnny'' Goldstein Remix)
11 Mind And Soul (Exaile Remix)
 
Лог создания рипа
Exact Audio Copy V1.1 from 23. June 2015
EAC extraction logfile from 23. September 2015, 4:07
Coolooloosh / Coolooloosh Remixed
Used drive : TSSTcorpCDDVDW TS-L633C Adapter: 1 ID: 0
Read mode : Secure
Utilize accurate stream : Yes
Defeat audio cache : Yes
Make use of C2 pointers : No
Read offset correction : 6
Overread into Lead-In and Lead-Out : No
Fill up missing offset samples with silence : Yes
Delete leading and trailing silent blocks : No
Null samples used in CRC calculations : Yes
Used interface : Native Win32 interface for Win NT & 2000
Used output format : User Defined Encoder
Selected bitrate : 768 kBit/s
Quality : High
Add ID3 tag : No
Command line compressor : C:\Program Files (x86)\Exact Audio Copy\Flac\flac.exe
Additional command line options : -V -8 -T "Date=%year%" -T "Genre=%genre%" %source%
TOC of the extracted CD
Track | Start | Length | Start sector | End sector
---------------------------------------------------------
1 | 0:00.00 | 4:06.05 | 0 | 18454
2 | 4:06.05 | 2:57.19 | 18455 | 31748
3 | 7:03.24 | 4:36.54 | 31749 | 52502
4 | 11:40.03 | 3:03.53 | 52503 | 66280
5 | 14:43.56 | 4:13.09 | 66281 | 85264
6 | 18:56.65 | 3:20.13 | 85265 | 100277
7 | 22:17.03 | 7:17.24 | 100278 | 133076
8 | 29:34.27 | 3:42.51 | 133077 | 149777
9 | 33:17.03 | 3:07.36 | 149778 | 163838
10 | 36:24.39 | 2:58.27 | 163839 | 177215
11 | 39:22.66 | 4:28.65 | 177216 | 197380
Range status and errors
Selected range
Filename C:\Users\Xylenefree\Music\12.RIPS\Coolooloosh - Coolooloosh Remixed.wav
Peak level 100.0 %
Extraction speed 4.3 X
Range quality 99.9 %
Test CRC F959A4D1
Copy CRC F959A4D1
Copy OK
No errors occurred
AccurateRip summary
Track 1 not present in database
Track 2 not present in database
Track 3 not present in database
Track 4 not present in database
Track 5 not present in database
Track 6 not present in database
Track 7 not present in database
Track 8 not present in database
Track 9 not present in database
Track 10 not present in database
Track 11 not present in database
None of the tracks are present in the AccurateRip database
End of status report
---- CUETools DB Plugin V2.1.6
[CTDB TOCID: YLwHMoCXdt1ZhG4lYEZdDr08CTE-] disk not present in database
Submit result: YLwHMoCXdt1ZhG4lYEZdDr08CTE- has been uploaded
==== Log checksum BF5772DDE1036B72B2F68908478621CB474A26009538C3C9ABE44E944DD104CE ====
Приватный:
Нет (DHT включён)
Размер:
281.22 Мб (294,881,917 байт) » файлов: 4
Участники:
0 раздают, 0 качают (0 участников всего)
Внешние участники:
1 раздают, 0 качают (1 участников всего) [ Обновить ]
Есть вопросы - пишите личное сообщение пользователю M0p94ok.
08:04
88
Нет комментариев. Ваш будет первым!