Поиск

(Funk, R&B) [CD] Rufus featuring Chaka Khan - Rags To Rufus (1974) - 2004 {UICY-9404}, FLAC (tracks+.cue), lossless

(Funk, R&B) [CD] Rufus featuring Chaka Khan - Rags To Rufus (1974) - 2004 {UICY-9404}, FLAC (tracks+.cue), lossless
Треклист:
Rufus featuring Chaka Khan - Rags To Rufus (1974) Жанр: Funk, R&B
Носитель: CD
Страна-производитель диска (релиза): Japan
Год издания: 2004
Издатель (лейбл): Geffen Records
Номер по каталогу: UICY-9404
Аудиокодек: FLAC (*.flac)
Тип рипа: tracks+.cue
Битрейт аудио: lossless
Продолжительность: 39:29
Rip by JET 1
Наличие сканов в содержимом раздачи: да
Треклист:
01. You Got The Love (4:40)
02. I Got The Right Street (But The Wrong Direction) (3:16)
03. Walkin' In The Sun (3:01)
04. Rags To Rufus (Instrumental) (4:04)
05. Swing Down Chariot (4:24)
06. Sideways (Instrumental) (1:45)
07. Ain't Nothin' But A Maybe (3:34)
08. Tell Me Something Good (4:38)
09. Look Through My Eyes (3:08)
10. In Love We Grow (2:38)
11. Smokin' Room (4:21)
 
 
Лог создания рипа
Exact Audio Copy V1.0 beta 3 from 29. August 2011
EAC extraction logfile from 26. September 2015, 13:43
Rufus / Rags To Rufus
Used drive : GENERIC CDRCB05 Adapter: 4 ID: 0
Read mode : Secure
Utilize accurate stream : Yes
Defeat audio cache : Yes
Make use of C2 pointers : No
Read offset correction : 102
Overread into Lead-In and Lead-Out : No
Fill up missing offset samples with silence : Yes
Delete leading and trailing silent blocks : No
Null samples used in CRC calculations : Yes
Used interface : Native Win32 interface for Win NT & 2000
Gap handling : Appended to previous track
Used output format : User Defined Encoder
Selected bitrate : 1024 kBit/s
Quality : High
Add ID3 tag : No
Command line compressor : C:\Program Files\FLAC\flac.exe
Additional command line options : -8 -V -T "ARTIST=%artist%" -T "TITLE=%title%" -T "ALBUM=%albumtitle%" -T "DATE=%year%" -T "TRACKNUMBER=%tracknr%" -T "GENRE=%genre%" -T "PERFORMER=%albuminterpret%" -T "COMPOSER=%composer%" %haslyrics%--tag-from-file=LYRICS="%lyricsfile%"%haslyrics% -T "ALBUMARTIST=%albumartist%" -T "DISCNUMBER=%cdnumber%" -T "TOTALDISCS=%totalcds%" -T "TOTALTRACKS=%numtracks%" -T "COMMENT=%comment%" %source% -o %dest%
TOC of the extracted CD
Track | Start | Length | Start sector | End sector
---------------------------------------------------------
1 | 0:00.00 | 4:39.72 | 0 | 20996
2 | 4:39.72 | 3:16.08 | 20997 | 35704
3 | 7:56.05 | 3:01.07 | 35705 | 49286
4 | 10:57.12 | 4:03.58 | 49287 | 67569
5 | 15:00.70 | 4:23.70 | 67570 | 87364
6 | 19:24.65 | 1:44.45 | 87365 | 95209
7 | 21:09.35 | 3:34.37 | 95210 | 111296
8 | 24:43.72 | 4:38.00 | 111297 | 132146
9 | 29:21.72 | 3:08.05 | 132147 | 146251
10 | 32:30.02 | 2:38.15 | 146252 | 158116
11 | 35:08.17 | 4:20.55 | 158117 | 177671
Track 1
Filename F:\MUSIC\0000POSTS\Rufus Featuring Chaka Khan - Rags To Rufus (1974) [2004 Japan Mini-CD]\01 - You Got The Love.wav
Pre-gap length 0:00:02.00
Peak level 97.7 %
Extraction speed 2.4 X
Track quality 100.0 %
Test CRC 37ABCE01
Copy CRC 37ABCE01
Accurately ripped (confidence 1) [089D9972] (AR v2)
Copy OK
Track 2
Filename F:\MUSIC\0000POSTS\Rufus Featuring Chaka Khan - Rags To Rufus (1974) [2004 Japan Mini-CD]\02 - I Got The Right Street (But The Wrong Direction).wav
Peak level 97.7 %
Extraction speed 2.5 X
Track quality 100.0 %
Test CRC 5BDCF185
Copy CRC 5BDCF185
Accurately ripped (confidence 1) [43F49716] (AR v2)
Copy OK
Track 3
Filename F:\MUSIC\0000POSTS\Rufus Featuring Chaka Khan - Rags To Rufus (1974) [2004 Japan Mini-CD]\03 - Walkin' In The Sun.wav
Pre-gap length 0:00:01.48
Peak level 97.7 %
Extraction speed 2.6 X
Track quality 100.0 %
Test CRC 5C939735
Copy CRC 5C939735
Accurately ripped (confidence 1) [8A36ACE8] (AR v2)
Copy OK
Track 4
Filename F:\MUSIC\0000POSTS\Rufus Featuring Chaka Khan - Rags To Rufus (1974) [2004 Japan Mini-CD]\04 - Rags To Rufus (Instrumental).wav
Peak level 97.7 %
Extraction speed 3.0 X
Track quality 100.0 %
Test CRC 796A49F5
Copy CRC 796A49F5
Accurately ripped (confidence 1) [CB866765] (AR v2)
Copy OK
Track 5
Filename F:\MUSIC\0000POSTS\Rufus Featuring Chaka Khan - Rags To Rufus (1974) [2004 Japan Mini-CD]\05 - Swing Down Chariot.wav
Pre-gap length 0:00:01.10
Peak level 97.7 %
Extraction speed 2.8 X
Track quality 99.9 %
Test CRC C0503BF3
Copy CRC C0503BF3
Accurately ripped (confidence 1) [9D285898] (AR v2)
Copy OK
Track 6
Filename F:\MUSIC\0000POSTS\Rufus Featuring Chaka Khan - Rags To Rufus (1974) [2004 Japan Mini-CD]\06 - Sideways (Instrumental).wav
Pre-gap length 0:00:01.55
Peak level 97.7 %
Extraction speed 2.2 X
Track quality 99.8 %
Test CRC A6DDAC3F
Copy CRC A6DDAC3F
Accurately ripped (confidence 1) [5BCCD3B3] (AR v2)
Copy OK
Track 7
Filename F:\MUSIC\0000POSTS\Rufus Featuring Chaka Khan - Rags To Rufus (1974) [2004 Japan Mini-CD]\07 - Ain't Nothin' But A Maybe.wav
Peak level 97.7 %
Extraction speed 3.3 X
Track quality 100.0 %
Test CRC DCB768ED
Copy CRC DCB768ED
Accurately ripped (confidence 1) [E4FD7B92] (AR v2)
Copy OK
Track 8
Filename F:\MUSIC\0000POSTS\Rufus Featuring Chaka Khan - Rags To Rufus (1974) [2004 Japan Mini-CD]\08 - Tell Me Something Good.wav
Pre-gap length 0:00:01.12
Peak level 97.7 %
Extraction speed 3.6 X
Track quality 100.0 %
Test CRC CAFAF5A9
Copy CRC CAFAF5A9
Accurately ripped (confidence 1) [DCD574AF] (AR v2)
Copy OK
Track 9
Filename F:\MUSIC\0000POSTS\Rufus Featuring Chaka Khan - Rags To Rufus (1974) [2004 Japan Mini-CD]\09 - Look Through My Eyes.wav
Pre-gap length 0:00:01.22
Peak level 97.7 %
Extraction speed 3.5 X
Track quality 100.0 %
Test CRC 8CADFB3A
Copy CRC 8CADFB3A
Accurately ripped (confidence 1) [391347D6] (AR v2)
Copy OK
Track 10
Filename F:\MUSIC\0000POSTS\Rufus Featuring Chaka Khan - Rags To Rufus (1974) [2004 Japan Mini-CD]\10 - In Love We Grow.wav
Peak level 97.7 %
Extraction speed 3.5 X
Track quality 100.0 %
Test CRC 1B73C45C
Copy CRC 1B73C45C
Accurately ripped (confidence 1) [7BA9F470] (AR v2)
Copy OK
Track 11
Filename F:\MUSIC\0000POSTS\Rufus Featuring Chaka Khan - Rags To Rufus (1974) [2004 Japan Mini-CD]\11 - Smokin' Room.wav
Pre-gap length 0:00:01.47
Peak level 97.7 %
Extraction speed 3.9 X
Track quality 100.0 %
Test CRC 2E04E8BB
Copy CRC 2E04E8BB
Accurately ripped (confidence 1) [FF2F676F] (AR v2)
Copy OK
All tracks accurately ripped
No errors occurred
End of status report
==== Log checksum FE9BDDE54A313198B73A3BB4D0D1089D061DB67798E9719C960B4377A1C059ED ====
 
Содержание индексной карты (.CUE)
REM GENRE R&B
REM DATE 1974
REM DISCID 9009400B
REM COMMENT "ExactAudioCopy v1.0b3"
PERFORMER "Rufus featuring Chaka Khan"
TITLE "Rags To Rufus"
FILE "01 - You Got The Love.wav" WAVE
TRACK 01 AUDIO
TITLE "You Got The Love"
PERFORMER "Rufus featuring Chaka Khan"
INDEX 01 00:00:00
FILE "02 - I Got The Right Street (But The Wrong Direction).wav" WAVE
TRACK 02 AUDIO
TITLE "I Got The Right Street (But The Wrong Direction)"
PERFORMER "Rufus featuring Chaka Khan"
INDEX 01 00:00:00
TRACK 03 AUDIO
TITLE "Walkin' In The Sun"
PERFORMER "Rufus featuring Chaka Khan"
INDEX 00 03:14:35
FILE "03 - Walkin' In The Sun.wav" WAVE
INDEX 01 00:00:00
FILE "04 - Rags To Rufus (Instrumental).wav" WAVE
TRACK 04 AUDIO
TITLE "Rags To Rufus (Instrumental)"
PERFORMER "Rufus featuring Chaka Khan"
INDEX 01 00:00:00
TRACK 05 AUDIO
TITLE "Swing Down Chariot"
PERFORMER "Rufus featuring Chaka Khan"
INDEX 00 04:02:48
FILE "05 - Swing Down Chariot.wav" WAVE
INDEX 01 00:00:00
TRACK 06 AUDIO
TITLE "Sideways (Instrumental)"
PERFORMER "Rufus featuring Chaka Khan"
INDEX 00 04:22:15
FILE "06 - Sideways (Instrumental).wav" WAVE
INDEX 01 00:00:00
FILE "07 - Ain't Nothin' But A Maybe.wav" WAVE
TRACK 07 AUDIO
TITLE "Ain't Nothin' But A Maybe"
PERFORMER "Rufus featuring Chaka Khan"
INDEX 01 00:00:00
TRACK 08 AUDIO
TITLE "Tell Me Something Good"
PERFORMER "Rufus featuring Chaka Khan"
INDEX 00 03:33:25
FILE "08 - Tell Me Something Good.wav" WAVE
INDEX 01 00:00:00
TRACK 09 AUDIO
TITLE "Look Through My Eyes"
PERFORMER "Rufus featuring Chaka Khan"
INDEX 00 04:36:53
FILE "09 - Look Through My Eyes.wav" WAVE
INDEX 01 00:00:00
FILE "10 - In Love We Grow.wav" WAVE
TRACK 10 AUDIO
TITLE "In Love We Grow"
PERFORMER "Rufus featuring Chaka Khan"
INDEX 01 00:00:00
TRACK 11 AUDIO
TITLE "Smokin' Room"
PERFORMER "Rufus featuring Chaka Khan"
INDEX 00 02:36:43
FILE "11 - Smokin' Room.wav" WAVE
INDEX 01 00:00:00
Приватный:
Нет (DHT включён)
Размер:
443.00 Мб (464,516,633 байт) » файлов: 27
Участники:
0 раздают, 0 качают (0 участников всего)
Внешние участники:
5 раздают, 1 качают (6 участников всего) [ Обновить ]
Есть вопросы - пишите личное сообщение пользователю M0p94ok.
08:03
94
Нет комментариев. Ваш будет первым!