Поиск

(Soul) [CD] Jackie Wilson - The Soul Years 1965-1975 - 1999, FLAC (tracks+.cue), lossless

(Soul) [CD] Jackie Wilson - The Soul Years 1965-1975 - 1999, FLAC (tracks+.cue), lossless
Треклист:
Jackie Wilson - The Soul Years 1965-1975 Жанр: Soul
Носитель: CD
Год издания: 1999
Издатель (лейбл): Brunswick Records
Аудиокодек: FLAC (*.flac)
Тип рипа: tracks+.cue
Битрейт аудио: lossless
Продолжительность: 48:33
Источник (релизер): What.cd (Downpresser)
Наличие сканов в содержимом раздачи: нет
Треклист:
01. Whispers (Gettin' Louder) (2:24)
02. The Fairest Of Them All (2:53)
03. My Heart Is Calling (2:26)
04. Who Am I? (3:00)
05. You Brought About A Change In Me (2:47)
06. Since You Showed Me How To Be Happy (2:46)
07. (Your Love Keeps Lifting Me) Higher And Higher (2:59)
08. I Get The Sweetest Feeling (2:56)
09. The Who Who Song (2:54)
10. What A Lovely Way (3:45)
11. (I Can Feel These) Vibrations (2:56)
12. Try It Again (2:23)
13. Because Of You (3:19)
14. You Got Me Walking (2:44)
15. (We Got To Find) The Fountain (2:49)
16. (My Love Is) Growin' Tall (2:37)
17. Nobody But You (2:58)
 
 
Лог создания рипа
X Lossless Decoder version 20121027 (142.1)
XLD extraction logfile from 2012-12-14 15:41:43 -0500
Jackie Wilson / The Soul Years 1965-1975
Used drive : MATSHITA DVD-R UJ-868 (revision KB19)
Ripper mode : XLD Secure Ripper
Disable audio cache : OK for the drive with a cache less than 1375KiB
Make use of C2 pointers : NO
Read offset correction : 102
Max retry count : 20
Gap status : Analyzed, Appended (except HTOA)
TOC of the extracted CD
Track | Start | Length | Start sector | End sector
---------------------------------------------------------
1 | 00:00:00 | 02:23:42 | 0 | 10766
2 | 02:23:42 | 02:53:15 | 10767 | 23756
3 | 05:16:57 | 02:25:40 | 23757 | 34671
4 | 07:42:22 | 03:00:35 | 34672 | 48206
5 | 10:42:57 | 02:46:53 | 48207 | 60709
6 | 13:29:35 | 02:45:57 | 60710 | 73141
7 | 16:15:17 | 02:58:45 | 73142 | 86536
8 | 19:13:62 | 02:55:63 | 86537 | 99724
9 | 22:09:50 | 02:53:65 | 99725 | 112764
10 | 25:03:40 | 03:44:45 | 112765 | 129609
11 | 28:48:10 | 02:55:55 | 129610 | 142789
12 | 31:43:65 | 02:22:55 | 142790 | 153494
13 | 34:06:45 | 03:18:60 | 153495 | 168404
14 | 37:25:30 | 02:43:50 | 168405 | 180679
15 | 40:09:05 | 02:49:10 | 180680 | 193364
16 | 42:58:15 | 02:36:60 | 193365 | 205124
17 | 45:35:00 | 02:57:40 | 205125 | 218439
AccurateRip Summary
Disc not found in AccurateRip DB.
All Tracks
Album gain : -7.96 dB
Peak : 0.988739
Statistics
Read error : 0
Jitter error (maybe fixed) : 0
Retry sector count : 0
Damaged sector count : 0
Track 01
Filename : /Users/p8475c/Music/Jackie Wilson - 1999 - The Soul Years 1965-1975 [FLAC] / 01 - Whispers (Gettin' Louder).flac
/Users/p8475c/Music/Jackie Wilson - 1999 - The Soul Years 1965-1975 [V0] / 01 - Whispers (Gettin' Louder).mp3
Pre-gap length : 00:02:00
Track gain : -7.49 dB
Peak : 0.988739
CRC32 hash (test run) : B8459780
CRC32 hash : B8459780
CRC32 hash (skip zero) : 35CA8453
AccurateRip v1 signature : 4772BF59
AccurateRip v2 signature : DE445017
->Track not present in AccurateRip database.
Statistics
Read error : 0
Jitter error (maybe fixed) : 0
Retry sector count : 0
Damaged sector count : 0
Track 02
Filename : /Users/p8475c/Music/Jackie Wilson - 1999 - The Soul Years 1965-1975 [FLAC] / 02 - The Fairest of Them All.flac
/Users/p8475c/Music/Jackie Wilson - 1999 - The Soul Years 1965-1975 [V0] / 02 - The Fairest of Them All.mp3
Pre-gap length : 00:02:42
Track gain : -5.70 dB
Peak : 0.988678
CRC32 hash (test run) : 429958EB
CRC32 hash : 429958EB
CRC32 hash (skip zero) : FCFA5AE1
AccurateRip v1 signature : 16FE2359
AccurateRip v2 signature : 98325B93
->Track not present in AccurateRip database.
Statistics
Read error : 0
Jitter error (maybe fixed) : 0
Retry sector count : 0
Damaged sector count : 0
Track 03
Filename : /Users/p8475c/Music/Jackie Wilson - 1999 - The Soul Years 1965-1975 [FLAC] / 03 - My Heart is Calling.flac
/Users/p8475c/Music/Jackie Wilson - 1999 - The Soul Years 1965-1975 [V0] / 03 - My Heart is Calling.mp3
Pre-gap length : 00:02:42
Track gain : -7.20 dB
Peak : 0.988586
CRC32 hash (test run) : E1EE5D97
CRC32 hash : E1EE5D97
CRC32 hash (skip zero) : CD7B0EE1
AccurateRip v1 signature : 5EC751D6
AccurateRip v2 signature : 65B0471B
->Track not present in AccurateRip database.
Statistics
Read error : 0
Jitter error (maybe fixed) : 0
Retry sector count : 0
Damaged sector count : 0
Track 04
Filename : /Users/p8475c/Music/Jackie Wilson - 1999 - The Soul Years 1965-1975 [FLAC] / 04 - Who am I?.flac
/Users/p8475c/Music/Jackie Wilson - 1999 - The Soul Years 1965-1975 [V0] / 04 - Who am I?.mp3
Pre-gap length : 00:02:42
Track gain : -8.35 dB
Peak : 0.988708
CRC32 hash (test run) : 461BBAA9
CRC32 hash : 461BBAA9
CRC32 hash (skip zero) : F6F24F2F
AccurateRip v1 signature : B1972B93
AccurateRip v2 signature : EA34728B
->Track not present in AccurateRip database.
Statistics
Read error : 0
Jitter error (maybe fixed) : 0
Retry sector count : 0
Damaged sector count : 0
Track 05
Filename : /Users/p8475c/Music/Jackie Wilson - 1999 - The Soul Years 1965-1975 [FLAC] / 05 - You Brought About a Change in Me.flac
/Users/p8475c/Music/Jackie Wilson - 1999 - The Soul Years 1965-1975 [V0] / 05 - You Brought About a Change in Me.mp3
Pre-gap length : 00:02:42
Track gain : -7.80 dB
Peak : 0.988678
CRC32 hash (test run) : D6A4B555
CRC32 hash : D6A4B555
CRC32 hash (skip zero) : 438B837C
AccurateRip v1 signature : BC2EFCD2
AccurateRip v2 signature : 5A0B7D9F
->Track not present in AccurateRip database.
Statistics
Read error : 0
Jitter error (maybe fixed) : 0
Retry sector count : 0
Damaged sector count : 0
Track 06
Filename : /Users/p8475c/Music/Jackie Wilson - 1999 - The Soul Years 1965-1975 [FLAC] / 06 - Since You Showed Me How to Be Happy.flac
/Users/p8475c/Music/Jackie Wilson - 1999 - The Soul Years 1965-1975 [V0] / 06 - Since You Showed Me How to Be Happy.mp3
Pre-gap length : 00:02:43
Track gain : -8.07 dB
Peak : 0.988678
CRC32 hash (test run) : D46C00DC
CRC32 hash : D46C00DC
CRC32 hash (skip zero) : 4F5FCF8C
AccurateRip v1 signature : 82571009
AccurateRip v2 signature : 879530D3
->Track not present in AccurateRip database.
Statistics
Read error : 0
Jitter error (maybe fixed) : 0
Retry sector count : 0
Damaged sector count : 0
Track 07
Filename : /Users/p8475c/Music/Jackie Wilson - 1999 - The Soul Years 1965-1975 [FLAC] / 07 - (Your Love Keeps Lifting Me) Higher and Higher.flac
/Users/p8475c/Music/Jackie Wilson - 1999 - The Soul Years 1965-1975 [V0] / 07 - (Your Love Keeps Lifting Me) Higher and Higher.mp3
Pre-gap length : 00:02:42
Track gain : -10.29 dB
Peak : 0.988708
CRC32 hash (test run) : 834D4822
CRC32 hash : 834D4822
CRC32 hash (skip zero) : A9AC7204
AccurateRip v1 signature : 93854C06
AccurateRip v2 signature : 3B77872B
->Track not present in AccurateRip database.
Statistics
Read error : 0
Jitter error (maybe fixed) : 0
Retry sector count : 0
Damaged sector count : 0
Track 08
Filename : /Users/p8475c/Music/Jackie Wilson - 1999 - The Soul Years 1965-1975 [FLAC] / 08 - I Get the Sweetest Feeling.flac
/Users/p8475c/Music/Jackie Wilson - 1999 - The Soul Years 1965-1975 [V0] / 08 - I Get the Sweetest Feeling.mp3
Pre-gap length : 00:02:42
Track gain : -7.69 dB
Peak : 0.988739
CRC32 hash (test run) : C8BC3A85
CRC32 hash : C8BC3A85
CRC32 hash (skip zero) : 880A6F0D
AccurateRip v1 signature : 3E9E45CE
AccurateRip v2 signature : 2048038D
->Track not present in AccurateRip database.
Statistics
Read error : 0
Jitter error (maybe fixed) : 0
Retry sector count : 0
Damaged sector count : 0
Track 09
Filename : /Users/p8475c/Music/Jackie Wilson - 1999 - The Soul Years 1965-1975 [FLAC] / 09 - The Who Who Song.flac
/Users/p8475c/Music/Jackie Wilson - 1999 - The Soul Years 1965-1975 [V0] / 09 - The Who Who Song.mp3
Pre-gap length : 00:02:43
Track gain : -7.84 dB
Peak : 0.988678
CRC32 hash (test run) : E51E06F2
CRC32 hash : E51E06F2
CRC32 hash (skip zero) : A86DAE5A
AccurateRip v1 signature : AC511589
AccurateRip v2 signature : C9EDFE09
->Track not present in AccurateRip database.
Statistics
Read error : 0
Jitter error (maybe fixed) : 0
Retry sector count : 0
Damaged sector count : 0
Track 10
Filename : /Users/p8475c/Music/Jackie Wilson - 1999 - The Soul Years 1965-1975 [FLAC] / 10 - What a Lovely Way.flac
/Users/p8475c/Music/Jackie Wilson - 1999 - The Soul Years 1965-1975 [V0] / 10 - What a Lovely Way.mp3
Pre-gap length : 00:02:43
Track gain : -7.22 dB
Peak : 0.988708
CRC32 hash (test run) : E50D8E7F
CRC32 hash : E50D8E7F
CRC32 hash (skip zero) : 909F2A06
AccurateRip v1 signature : 1F435882
AccurateRip v2 signature : 4B85A0AC
->Track not present in AccurateRip database.
Statistics
Read error : 0
Jitter error (maybe fixed) : 0
Retry sector count : 0
Damaged sector count : 0
Track 11
Filename : /Users/p8475c/Music/Jackie Wilson - 1999 - The Soul Years 1965-1975 [FLAC] / 11 - (I Can Feel These) Vibrations.flac
/Users/p8475c/Music/Jackie Wilson - 1999 - The Soul Years 1965-1975 [V0] / 11 - (I Can Feel These) Vibrations.mp3
Pre-gap length : 00:02:45
Track gain : -7.35 dB
Peak : 0.988739
CRC32 hash (test run) : 65065E01
CRC32 hash : 65065E01
CRC32 hash (skip zero) : EE40F13B
AccurateRip v1 signature : 287DFFA3
AccurateRip v2 signature : 3A530C14
->Track not present in AccurateRip database.
Statistics
Read error : 0
Jitter error (maybe fixed) : 0
Retry sector count : 0
Damaged sector count : 0
Track 12
Filename : /Users/p8475c/Music/Jackie Wilson - 1999 - The Soul Years 1965-1975 [FLAC] / 12 - Try It Again.flac
/Users/p8475c/Music/Jackie Wilson - 1999 - The Soul Years 1965-1975 [V0] / 12 - Try It Again.mp3
Pre-gap length : 00:02:43
Track gain : -7.31 dB
Peak : 0.988708
CRC32 hash (test run) : E2B9CF67
CRC32 hash : E2B9CF67
CRC32 hash (skip zero) : 641837DE
AccurateRip v1 signature : 5AED345E
AccurateRip v2 signature : 202EBE5F
->Track not present in AccurateRip database.
Statistics
Read error : 0
Jitter error (maybe fixed) : 0
Retry sector count : 0
Damaged sector count : 0
Track 13
Filename : /Users/p8475c/Music/Jackie Wilson - 1999 - The Soul Years 1965-1975 [FLAC] / 13 - Because of You.flac
/Users/p8475c/Music/Jackie Wilson - 1999 - The Soul Years 1965-1975 [V0] / 13 - Because of You.mp3
Pre-gap length : 00:02:43
Track gain : -8.23 dB
Peak : 0.988708
CRC32 hash (test run) : 3519168D
CRC32 hash : 3519168D
CRC32 hash (skip zero) : 76464DA0
AccurateRip v1 signature : 17C28C6B
AccurateRip v2 signature : D95732D7
->Track not present in AccurateRip database.
Statistics
Read error : 0
Jitter error (maybe fixed) : 0
Retry sector count : 0
Damaged sector count : 0
Track 14
Filename : /Users/p8475c/Music/Jackie Wilson - 1999 - The Soul Years 1965-1975 [FLAC] / 14 - You Got Me Walking.flac
/Users/p8475c/Music/Jackie Wilson - 1999 - The Soul Years 1965-1975 [V0] / 14 - You Got Me Walking.mp3
Pre-gap length : 00:02:43
Track gain : -4.63 dB
Peak : 0.988678
CRC32 hash (test run) : A8F662C6
CRC32 hash : A8F662C6
CRC32 hash (skip zero) : 23B70F87
AccurateRip v1 signature : 9FAD8B30
AccurateRip v2 signature : 1217E56A
->Track not present in AccurateRip database.
Statistics
Read error : 0
Jitter error (maybe fixed) : 0
Retry sector count : 0
Damaged sector count : 0
Track 15
Filename : /Users/p8475c/Music/Jackie Wilson - 1999 - The Soul Years 1965-1975 [FLAC] / 15 - (We Got to Find) The Fountain.flac
/Users/p8475c/Music/Jackie Wilson - 1999 - The Soul Years 1965-1975 [V0] / 15 - (We Got to Find) The Fountain.mp3
Pre-gap length : 00:02:43
Track gain : -5.26 dB
Peak : 0.988678
CRC32 hash (test run) : 333BCD79
CRC32 hash : 333BCD79
CRC32 hash (skip zero) : CEF1E93B
AccurateRip v1 signature : 5D0144FE
AccurateRip v2 signature : 4BFDCA4E
->Track not present in AccurateRip database.
Statistics
Read error : 0
Jitter error (maybe fixed) : 0
Retry sector count : 0
Damaged sector count : 0
Track 16
Filename : /Users/p8475c/Music/Jackie Wilson - 1999 - The Soul Years 1965-1975 [FLAC] / 16 - (My Love Is) Growin' Tall.flac
/Users/p8475c/Music/Jackie Wilson - 1999 - The Soul Years 1965-1975 [V0] / 16 - (My Love Is) Growin' Tall.mp3
Pre-gap length : 00:02:43
Track gain : -9.08 dB
Peak : 0.988739
CRC32 hash (test run) : 2BEA1A56
CRC32 hash : 2BEA1A56
CRC32 hash (skip zero) : 2650CB6B
AccurateRip v1 signature : 89C10E05
AccurateRip v2 signature : CF0901AF
->Track not present in AccurateRip database.
Statistics
Read error : 0
Jitter error (maybe fixed) : 0
Retry sector count : 0
Damaged sector count : 0
Track 17
Filename : /Users/p8475c/Music/Jackie Wilson - 1999 - The Soul Years 1965-1975 [FLAC] / 17 - Nobody But You.flac
/Users/p8475c/Music/Jackie Wilson - 1999 - The Soul Years 1965-1975 [V0] / 17 - Nobody But You.mp3
Pre-gap length : 00:02:43
Track gain : -7.49 dB
Peak : 0.988739
CRC32 hash (test run) : 3868CEC3
CRC32 hash : 3868CEC3
CRC32 hash (skip zero) : 302E3DFF
AccurateRip v1 signature : 9794A002
AccurateRip v2 signature : 6E93485F
->Track not present in AccurateRip database.
Statistics
Read error : 0
Jitter error (maybe fixed) : 0
Retry sector count : 0
Damaged sector count : 0
No errors occurred
End of status report
 
Содержание индексной карты (.CUE)
TITLE "The Soul Years 1965-1975"
PERFORMER "Jackie Wilson"
REM GENRE "Soul"
REM DATE "1999"
REM DISCID D50B6011
REM REPLAYGAIN_ALBUM_GAIN -7.96 dB
REM REPLAYGAIN_ALBUM_PEAK 0.988739
FILE "01. Whispers (Gettin' Louder).flac" WAVE
TRACK 01 AUDIO
TITLE "Whispers (Gettin' Louder)"
REM COMMENT "1965"
REM REPLAYGAIN_TRACK_GAIN -7.49 dB
REM REPLAYGAIN_TRACK_PEAK 0.988739
INDEX 01 00:00:00
TRACK 02 AUDIO
TITLE "The Fairest Of Them All"
REM COMMENT "1965"
REM REPLAYGAIN_TRACK_GAIN -5.70 dB
REM REPLAYGAIN_TRACK_PEAK 0.988678
INDEX 00 02:21:00
FILE "02. The Fairest Of Them All.flac" WAVE
INDEX 01 00:00:00
TRACK 03 AUDIO
TITLE "My Heart Is Calling"
REM COMMENT "1966"
REM REPLAYGAIN_TRACK_GAIN -7.20 dB
REM REPLAYGAIN_TRACK_PEAK 0.988586
INDEX 00 02:50:48
FILE "03. My Heart Is Calling.flac" WAVE
INDEX 01 00:00:00
TRACK 04 AUDIO
TITLE "Who Am I?"
REM COMMENT "1966"
REM REPLAYGAIN_TRACK_GAIN -8.35 dB
REM REPLAYGAIN_TRACK_PEAK 0.988708
INDEX 00 02:22:73
FILE "04. Who Am I.flac" WAVE
INDEX 01 00:00:00
TRACK 05 AUDIO
TITLE "You Brought About A Change In Me"
REM COMMENT "1968"
REM REPLAYGAIN_TRACK_GAIN -7.80 dB
REM REPLAYGAIN_TRACK_PEAK 0.988678
INDEX 00 02:57:68
FILE "05. You Brought About A Change In Me.flac" WAVE
INDEX 01 00:00:00
TRACK 06 AUDIO
TITLE "Since You Showed Me How To Be Happy"
REM COMMENT "1967"
REM REPLAYGAIN_TRACK_GAIN -8.07 dB
REM REPLAYGAIN_TRACK_PEAK 0.988678
INDEX 00 02:44:10
FILE "06. Since You Showed Me How To Be Happy.flac" WAVE
INDEX 01 00:00:00
TRACK 07 AUDIO
TITLE "(Your Love Keeps Lifting Me) Higher And Higher"
REM COMMENT "1967"
REM REPLAYGAIN_TRACK_GAIN -10.29 dB
REM REPLAYGAIN_TRACK_PEAK 0.988708
INDEX 00 02:43:15
FILE "07. (Your Love Keeps Lifting Me) Higher And Higher.flac" WAVE
INDEX 01 00:00:00
TRACK 08 AUDIO
TITLE "I Get The Sweetest Feeling"
REM COMMENT "1968"
REM REPLAYGAIN_TRACK_GAIN -7.69 dB
REM REPLAYGAIN_TRACK_PEAK 0.988739
INDEX 00 02:56:03
FILE "08. I Get The Sweetest Feeling.flac" WAVE
INDEX 01 00:00:00
TRACK 09 AUDIO
TITLE "The Who Who Song"
REM COMMENT "1967 - Non-album b-side Of "Since You Showed Me How To Be Happy""
REM REPLAYGAIN_TRACK_GAIN -7.84 dB
REM REPLAYGAIN_TRACK_PEAK 0.988678
INDEX 00 02:53:20
FILE "09. The Who Who Song.flac" WAVE
INDEX 01 00:00:00
TRACK 10 AUDIO
TITLE "What A Lovely Way"
REM COMMENT "1971"
REM REPLAYGAIN_TRACK_GAIN -7.22 dB
REM REPLAYGAIN_TRACK_PEAK 0.988708
INDEX 00 02:51:22
FILE "10. What A Lovely Way.flac" WAVE
INDEX 01 00:00:00
TRACK 11 AUDIO
TITLE "(I Can Feel These) Vibrations"
REM COMMENT "1971"
REM REPLAYGAIN_TRACK_GAIN -7.35 dB
REM REPLAYGAIN_TRACK_PEAK 0.988739
INDEX 00 03:42:00
FILE "11. (I Can Feel These) Vibrations.flac" WAVE
INDEX 01 00:00:00
TRACK 12 AUDIO
TITLE "Try It Again"
REM COMMENT "1971"
REM REPLAYGAIN_TRACK_GAIN -7.31 dB
REM REPLAYGAIN_TRACK_PEAK 0.988708
INDEX 00 02:53:12
FILE "12. Try It Again.flac" WAVE
INDEX 01 00:00:00
TRACK 13 AUDIO
TITLE "Because Of You"
REM COMMENT "1973"
REM REPLAYGAIN_TRACK_GAIN -8.23 dB
REM REPLAYGAIN_TRACK_PEAK 0.988708
INDEX 00 02:20:12
FILE "13. Because Of You.flac" WAVE
INDEX 01 00:00:00
TRACK 14 AUDIO
TITLE "You Got Me Walking"
REM COMMENT "1971"
REM REPLAYGAIN_TRACK_GAIN -4.63 dB
REM REPLAYGAIN_TRACK_PEAK 0.988678
INDEX 00 03:16:17
FILE "14. You Got Me Walking.flac" WAVE
INDEX 01 00:00:00
TRACK 15 AUDIO
TITLE "(We Got To Find) The Fountain"
REM COMMENT "1971"
REM REPLAYGAIN_TRACK_GAIN -5.26 dB
REM REPLAYGAIN_TRACK_PEAK 0.988678
INDEX 00 02:41:07
FILE "15. (We Got To Find) The Fountain.flac" WAVE
INDEX 01 00:00:00
TRACK 16 AUDIO
TITLE "(My Love Is) Growin' Tall"
REM COMMENT "1968"
REM REPLAYGAIN_TRACK_GAIN -9.08 dB
REM REPLAYGAIN_TRACK_PEAK 0.988739
INDEX 00 02:46:42
FILE "16. (My Love Is) Growin' Tall.flac" WAVE
INDEX 01 00:00:00
TRACK 17 AUDIO
TITLE "Nobody But You"
REM COMMENT "1976"
REM REPLAYGAIN_TRACK_GAIN -7.49 dB
REM REPLAYGAIN_TRACK_PEAK 0.988739
INDEX 00 02:34:17
FILE "17. Nobody But You.flac" WAVE
INDEX 01 00:00:00
Приватный:
Нет (DHT включён)
Размер:
321.17 Мб (336,765,949 байт) » файлов: 22
Участники:
0 раздают, 0 качают (0 участников всего)
Внешние участники:
2 раздают, 1 качают (3 участников всего) [ Обновить ]
No seeders - write a personal message to user M0p94ok. Нет сидеров - пишите личное сообщение пользователю M0p94ok.
08:02
265
Нет комментариев. Ваш будет первым!