Поиск

(Pop, Soul, Folk, Jazz, R&B) [CD] Sabrina Starke - Sabrina Starke - 2015, FLAC (image+.cue), lossless

(Pop, Soul, Folk, Jazz, R&B) [CD] Sabrina Starke - Sabrina Starke - 2015, FLAC (image+.cue), lossless
Треклист:
Sabrina Starke / Sabrina Starke
Жанр: Pop, Soul, Folk, Jazz, R&B
Носитель: CD
Страна-производитель диска (релиза): NL
Год издания: 2015
Издатель (лейбл): Zip Records & Ster-K Records BV
Номер по каталогу: Zip106
Страна исполнителя (группы): NL
Аудиокодек: FLAC (*.flac)
Тип рипа: image+.cue
Битрейт аудио: lossless
Продолжительность: 00:54:38.320
Источник (релизер): usenet
Наличие сканов в содержимом раздачи: да

01. Believing Is Seeing (3:48)
02. Dreamer (4:35)
03. Next Man (3:28)
04. Milk & Honey (3:57)
05. Not Afraid Of The Dark (6:14)
06. Leggo Of Ego (5:45)
07. Speak Up Love (4:29)
08. Save Me (5:29)
09. Rosy Coloured Glasses (5:29)
10. Don't Think You Know Me (4:03)
11. Ain't I A Woman? (4:41)
12. Believing Is Seeing part 2 (2:40)
 
Лог создания рипа
Exact Audio Copy V1.1 from 23. June 2015
EAC extraction logfile from 26. September 2015, 18:40
Sabrina Starke / Sabrina Starke
Used drive : hp CDDVDW SH-216DB Adapter: 1 ID: 0
Read mode : Secure
Utilize accurate stream : Yes
Defeat audio cache : Yes
Make use of C2 pointers : No
Read offset correction : 6
Overread into Lead-In and Lead-Out : No
Fill up missing offset samples with silence : Yes
Delete leading and trailing silent blocks : No
Null samples used in CRC calculations : Yes
Used interface : Native Win32 interface for Win NT & 2000
Used output format : Internal WAV Routines
Sample format : 44.100 Hz; 16 Bit; Stereo
TOC of the extracted CD
Track | Start | Length | Start sector | End sector
---------------------------------------------------------
1 | 0:00.00 | 3:48.20 | 0 | 17119
2 | 3:48.20 | 4:35.33 | 17120 | 37777
3 | 8:23.53 | 3:28.26 | 37778 | 53403
4 | 11:52.04 | 3:57.12 | 53404 | 71190
5 | 15:49.16 | 6:14.04 | 71191 | 99244
6 | 22:03.20 | 5:44.45 | 99245 | 125089
7 | 27:47.65 | 4:28.57 | 125090 | 145246
8 | 32:16.47 | 5:29.15 | 145247 | 169936
9 | 37:45.62 | 5:28.49 | 169937 | 194585
10 | 43:14.36 | 4:02.64 | 194586 | 212799
11 | 47:17.25 | 4:41.12 | 212800 | 233886
12 | 51:58.37 | 2:39.62 | 233887 | 245873
Range status and errors
Selected range
Filename E:\POST\Post Nieuw\Sabrina Stark - Sabrina Stark (EAC)\Sabrina Starke - Sabrina Starke.wav
Peak level 96.5 %
Extraction speed 7.0 X
Range quality 100.0 %
Test CRC 723B95F3
Copy CRC 723B95F3
Copy OK
No errors occurred
AccurateRip summary
Track 1 not present in database
Track 2 not present in database
Track 3 not present in database
Track 4 not present in database
Track 5 not present in database
Track 6 not present in database
Track 7 not present in database
Track 8 not present in database
Track 9 not present in database
Track 10 not present in database
Track 11 not present in database
Track 12 not present in database
None of the tracks are present in the AccurateRip database
End of status report
 
Содержание индексной карты (.CUE)
REM GENRE Pop
REM DATE 2015
REM DISCID A50CCE0C
REM COMMENT "ExactAudioCopy v1.1"
PERFORMER "Sabrina Starke"
TITLE "Sabrina Starke"
FILE "Sabrina Starke - Sabrina Starke.wav" WAVE
TRACK 01 AUDIO
TITLE "Believing Is Seeing"
PERFORMER "Sabrina Starke"
INDEX 01 00:00:00
TRACK 02 AUDIO
TITLE "Dreamer"
PERFORMER "Sabrina Starke"
INDEX 01 03:48:20
TRACK 03 AUDIO
TITLE "Next Man"
PERFORMER "Sabrina Starke"
INDEX 01 08:23:53
TRACK 04 AUDIO
TITLE "Milk & Honey"
PERFORMER "Sabrina Starke"
INDEX 01 11:52:04
TRACK 05 AUDIO
TITLE "Not Afraid Of The Dark"
PERFORMER "Sabrina Starke"
INDEX 01 15:49:16
TRACK 06 AUDIO
TITLE "Leggo Of Ego"
PERFORMER "Sabrina Starke"
INDEX 01 22:03:20
TRACK 07 AUDIO
TITLE "Speak Up Love"
PERFORMER "Sabrina Starke"
INDEX 01 27:47:65
TRACK 08 AUDIO
TITLE "Save Me"
PERFORMER "Sabrina Starke"
INDEX 01 32:16:47
TRACK 09 AUDIO
TITLE "Rosy Coloured Glasses"
PERFORMER "Sabrina Starke"
INDEX 01 37:45:62
TRACK 10 AUDIO
TITLE "Don't Think You Know Me"
PERFORMER "Sabrina Starke"
INDEX 01 43:14:36
TRACK 11 AUDIO
TITLE "Ain't I A Woman?"
PERFORMER "Sabrina Starke"
INDEX 01 47:17:25
TRACK 12 AUDIO
TITLE "Believing Is Seeing part 2"
PERFORMER "Sabrina Starke"
INDEX 01 51:58:37
 
Лог проверки качества
fooCDtect - foobar2000 + auCDtect, baralgin.
auCDtect: CD records authenticity detector, version 0.8.2
Copyright (c) 2004 Oleg Berngardt. All rights reserved.
Copyright (c) 2004 Alexander Djourik. All rights reserved.
mode: 0
===========================================
Track: 01. Sabrina Starke - Believing Is Seeing
Quality: CDDA 100%
===========================================
Track: 02. Sabrina Starke - Dreamer
Quality: CDDA 100%
===========================================
Track: 03. Sabrina Starke - Next Man
Quality: CDDA 100%
===========================================
Track: 04. Sabrina Starke - Milk & Honey
Quality: CDDA 100%
===========================================
Track: 05. Sabrina Starke - Not Afraid Of The Dark
Quality: CDDA 100%
===========================================
Track: 06. Sabrina Starke - Leggo Of Ego
Quality: CDDA 100%
===========================================
Track: 07. Sabrina Starke - Speak Up Love
Quality: CDDA 100%
===========================================
Track: 08. Sabrina Starke - Save Me
Quality: CDDA 100%
===========================================
Track: 09. Sabrina Starke - Rosy Coloured Glasses
Quality: CDDA 100%
===========================================
Track: 10. Sabrina Starke - Don't Think You Know Me
Quality: CDDA 100%
===========================================
Track: 11. Sabrina Starke - Ain't I A Woman
Quality: CDDA 100%
===========================================
Track: 12. Sabrina Starke - Believing Is Seeing part 2
Quality: CDDA 100%
===========================================
 
Динамический диапазон
foobar2000 1.3.8 / Dynamic Range Meter 1.1.1
log date: 2015-09-26 22:42:40
--------------------------------------------------------------------------------
Analyzed: Sabrina Starke / Sabrina Starke
--------------------------------------------------------------------------------
DR Peak RMS Duration Track
--------------------------------------------------------------------------------
DR8 -0.32 dB -11.08 dB 3:48 01-Believing Is Seeing
DR8 -0.33 dB -10.47 dB 4:35 02-Dreamer
DR10 -0.69 dB -13.45 dB 3:28 03-Next Man
DR8 -0.31 dB -10.16 dB 3:57 04-Milk & Honey
DR9 -0.30 dB -11.01 dB 6:14 05-Not Afraid Of The Dark
DR8 -0.31 dB -11.19 dB 5:45 06-Leggo Of Ego
DR9 -0.55 dB -12.56 dB 4:29 07-Speak Up Love
DR11 -0.74 dB -15.25 dB 5:29 08-Save Me
DR9 -0.31 dB -11.20 dB 5:29 09-Rosy Coloured Glasses
DR8 -0.50 dB -9.58 dB 4:03 10-Don't Think You Know Me
DR7 -0.45 dB -9.61 dB 4:41 11-Ain't I A Woman?
DR10 -0.30 dB -12.42 dB 2:40 12-Believing Is Seeing part 2
--------------------------------------------------------------------------------
Number of tracks: 12
Official DR value: DR9
Samplerate: 44100 Hz
Channels: 2
Bits per sample: 16
Bitrate: 796 kbps
Codec: FLAC
================================================================================
Приватный:
Нет (DHT включён)
Размер:
319.96 Мб (335,498,247 байт) » файлов: 8
Участники:
0 раздают, 0 качают (0 участников всего)
Внешние участники:
3 раздают, 1 качают (4 участников всего) [ Обновить ]
Есть вопросы - пишите личное сообщение пользователю M0p94ok.
08:01
113
Нет комментариев. Ваш будет первым!