Поиск

(Soul/Funk) [CD] American Gypsy - American Gypsy - 1975, FLAC (image+.cue), lossless

(Soul/Funk) [CD] American Gypsy - American Gypsy - 1975, FLAC (image+.cue), lossless
Треклист:
American Gypsy / American Gypsy
Жанр: Soul/Funk
Носитель: CD
Страна-производитель диска (релиза): Japan
Год издания: 1975
Издатель (лейбл): Chess
Номер по каталогу: UICY-6934
Страна исполнителя (группы): USA
Аудиокодек: FLAC (*.flac)
Тип рипа: image+.cue
Битрейт аудио: lossless
Продолжительность: 00:40:04
Источник (релизер): собственный рип
Наличие сканов в содержимом раздачи: нет
Треклист:
1. Inside Out (5:56)
2. 10.000 Miles (4:04)
3. Ooh Why Not (4:16)
4. Golden Ring (4:22)
5. Lady Eleanor (3:58)
6. Angel Eyes (3:45)
7. While It's Cold Outside (4:28)
8. Stuck On You (2:56)
9. Let Your Life Lead By Love (3:01)
10. Tribute To American Gypsy (3:18)
 
Лог создания рипа
Exact Audio Copy V1.1 from 23. June 2015
Отчёт EAC об извлечении, выполненном 28. января 2016, 11:53
American Gypsy / American Gypsy
Дисковод: ASUS DRW-24B3ST Adapter: 0 ID: 0
Режим чтения : Достоверность
Использование точного потока : Да
Отключение кэша аудио : Да
Использование указателей C2 : Нет
Коррекция смещения при чтении : 6
Способность читать области Lead-in и Lead-out : Нет
Заполнение пропущенных сэмплов тишиной : Да
Удаление блоков с тишиной в начале и конце : Нет
При вычислениях CRC использовались нулевые сэмплы : Да
Интерфейс : Установленный внешний ASPI-интерфейс
Выходной формат : Пользовательский кодировщик
Выбранный битрейт : 896 kBit/s
Качество : Высокий
Добавление ID3-тега : Нет
Утилита сжатия : C:\Program Files (x86)\Exact Audio Copy\FLAC\FLAC.EXE
Дополнительные параметры : -6 -V -T "ARTIST=%artist%" -T "TITLE=%title%" -T "ALBUM=%albumtitle%" -T "DATE=%year%" -T "TRACKNUMBER=%tracknr%" -T "GENRE=%genre%" -T "COMMENT=%comment%" -T "BAND=%albuminterpret%" -T "ALBUMARTIST=%albuminterpret%" -T "COMPOSER=%composer%" %haslyrics%--tag-from-file=LYRICS="%lyricsfile%"%haslyrics% -T "DISCNUMBER=%cdnumber%" -T "TOTALDISCS=%totalcds%" -T "TOTALTRACKS=%numtracks%" %hascover%--picture="%coverfile%"%hascover% %source% -o %dest%
TOC извлечённого CD
Трек | Старт | Длительность | Начальный сектор | Конечный сектор
---------------------------------------------------------------------
1 | 0:00.00 | 5:57.22 | 0 | 26796
2 | 5:57.22 | 4:03.63 | 26797 | 45084
3 | 10:01.10 | 4:19.39 | 45085 | 64548
4 | 14:20.49 | 4:22.21 | 64549 | 84219
5 | 18:42.70 | 3:59.06 | 84220 | 102150
6 | 22:42.01 | 3:46.59 | 102151 | 119159
7 | 26:28.60 | 4:29.05 | 119160 | 139339
8 | 30:57.65 | 2:58.65 | 139340 | 152754
9 | 33:56.55 | 3:02.64 | 152755 | 166468
10 | 36:59.44 | 3:17.42 | 166469 | 181285
Характеристики диапазона извлечения и сообщения об ошибках
Выбранный диапазон
Имя файла E:\Torrents\American Gypsy - 1975 - American Gypsy\American Gypsy - American Gypsy.wav
Пиковый уровень 100.0 %
Скорость извлечения 7.8 X
Качество диапазона 100.0 %
CRC теста 6090B0FA
CRC копии 6090B0FA
Копирование... OK
Ошибок не произошло
Конец отчёта
==== Контрольная сумма отчёта C6E156BAD29EEE05AE1A3EAF1AE1D4E860686873A8E54E627AE36798C5896DF1 ====
Приватный:
Нет (DHT включён)
Размер:
260.09 Мб (272,727,966 байт) » файлов: 4
Участники:
0 раздают, 0 качают (0 участников всего)
Внешние участники:
3 раздают, 1 качают (4 участников всего) [ Обновить ]
Есть вопросы - пишите личное сообщение пользователю M0p94ok.
09:43
78
Нет комментариев. Ваш будет первым!