Поиск

(funk, jazz rock) [CD] Black Sugar - Black Sugar II - 1974, FLAC (image+.cue), lossless

(funk, jazz rock) [CD] Black Sugar - Black Sugar II - 1974, FLAC (image+.cue), lossless
Треклист:
Black Sugar / Black Sugar II
Жанр: funk, jazz rock
Носитель: CD
Страна-производитель диска (релиза): Italy
Год издания: 1974
Издатель (лейбл): Get Back
Номер по каталогу: GET653
Страна исполнителя (группы): Peru
Аудиокодек: FLAC (*.flac)
Тип рипа: image+.cue
Битрейт аудио: lossless
Продолжительность: 00:36:57
Источник (релизер): собственный рип
Наличие сканов в содержимом раздачи: да
Треклист:
1 Fuego 5:40
2 Valdez In The Country 4:38
3 Don't You Worry About A Thing 2:51
4 The Dawn Of My Madness 2:33
5 I Want To Believe 3:18
6 Checan 5:10
7 Kathy 4:49
8 All Your Love 3:45
9 Wake Up 3:30
 
Лог создания рипа
Exact Audio Copy V1.1 from 23. June 2015
Отчёт EAC об извлечении, выполненном 27. января 2016, 21:51
Black Sugar / Black Sugar II
Дисковод: ASUS DRW-24B3ST Adapter: 0 ID: 0
Режим чтения : Достоверность
Использование точного потока : Да
Отключение кэша аудио : Да
Использование указателей C2 : Нет
Коррекция смещения при чтении : 6
Способность читать области Lead-in и Lead-out : Нет
Заполнение пропущенных сэмплов тишиной : Да
Удаление блоков с тишиной в начале и конце : Нет
При вычислениях CRC использовались нулевые сэмплы : Да
Интерфейс : Установленный внешний ASPI-интерфейс
Выходной формат : Пользовательский кодировщик
Выбранный битрейт : 896 kBit/s
Качество : Высокий
Добавление ID3-тега : Нет
Утилита сжатия : C:\Program Files (x86)\Exact Audio Copy\FLAC\FLAC.EXE
Дополнительные параметры : -6 -V -T "ARTIST=%artist%" -T "TITLE=%title%" -T "ALBUM=%albumtitle%" -T "DATE=%year%" -T "TRACKNUMBER=%tracknr%" -T "GENRE=%genre%" -T "COMMENT=%comment%" -T "BAND=%albuminterpret%" -T "ALBUMARTIST=%albuminterpret%" -T "COMPOSER=%composer%" %haslyrics%--tag-from-file=LYRICS="%lyricsfile%"%haslyrics% -T "DISCNUMBER=%cdnumber%" -T "TOTALDISCS=%totalcds%" -T "TOTALTRACKS=%numtracks%" %hascover%--picture="%coverfile%"%hascover% %source% -o %dest%
TOC извлечённого CD
Трек | Старт | Длительность | Начальный сектор | Конечный сектор
---------------------------------------------------------------------
1 | 0:00.00 | 5:37.17 | 0 | 25291
2 | 5:37.17 | 4:40.22 | 25292 | 46313
3 | 10:17.39 | 2:54.22 | 46314 | 59385
4 | 13:11.61 | 3:34.58 | 59386 | 75493
5 | 16:46.44 | 3:24.14 | 75494 | 90807
6 | 20:10.58 | 5:20.38 | 90808 | 114845
7 | 25:31.21 | 4:56.49 | 114846 | 137094
8 | 30:27.70 | 3:50.60 | 137095 | 154404
9 | 34:18.55 | 2:38.20 | 154405 | 166274
Характеристики диапазона извлечения и сообщения об ошибках
Выбранный диапазон
Имя файла E:\Torrents\Black Sugar - 1974 - Black Sugar II\Black Sugar - Black Sugar II.wav
Пиковый уровень 100.0 %
Скорость извлечения 2.9 X
Качество диапазона 100.0 %
CRC теста C0F815DC
CRC копии C0F815DC
Копирование... OK
Ошибок не произошло
Конец отчёта
==== Контрольная сумма отчёта 4D1DA1F4E8657DE95BD14C49E79F6EE43584E0992BC42E0952688C50B6019A02 ====
Приватный:
Нет (DHT включён)
Размер:
242.34 Мб (254,111,843 байт) » файлов: 7
Участники:
0 раздают, 0 качают (0 участников всего)
Внешние участники:
3 раздают, 1 качают (4 участников всего) [ Обновить ]
No seeders - write personal message to user M0p94ok. Нет сидеров - пишите личное сообщение пользователю M0p94ok.
09:42
81
Нет комментариев. Ваш будет первым!