Поиск

(funk, jazz rock) [CD] Black Sugar - Black Sugar - 1971, FLAC (image+.cue), lossless

(funk, jazz rock) [CD] Black Sugar - Black Sugar - 1971, FLAC (image+.cue), lossless
Треклист:
Black Sugar / Black Sugar
Жанр: funk, jazz rock
Носитель: CD
Страна-производитель диска (релиза): Italy
Год издания: 1971
Издатель (лейбл): Distrolux S.L.
Номер по каталогу: GET652
Страна исполнителя (группы): Peru
Аудиокодек: FLAC (*.flac)
Тип рипа: image+.cue
Битрейт аудио: lossless
Продолжительность: 00:37:14
Источник (релизер): собственный рип
Наличие сканов в содержимом раздачи: да
Треклист:
1 Too Late 3:00
2 Viajecito 5:42
3 The Looser 4:10
4 This Time 4:21
5 Funky Man 2:03
6 Understanding 5:06
7 When You're Walking 4:53
8 When I Needed Someone 2:42
9 Pussy Cat 4:54
 
Лог создания рипа
Exact Audio Copy V1.1 from 23. June 2015
Отчёт EAC об извлечении, выполненном 27. января 2016, 21:17
Black Sugar / Black Sugar
Дисковод: ASUS DRW-24B3ST Adapter: 0 ID: 0
Режим чтения : Достоверность
Использование точного потока : Да
Отключение кэша аудио : Да
Использование указателей C2 : Нет
Коррекция смещения при чтении : 6
Способность читать области Lead-in и Lead-out : Нет
Заполнение пропущенных сэмплов тишиной : Да
Удаление блоков с тишиной в начале и конце : Нет
При вычислениях CRC использовались нулевые сэмплы : Да
Интерфейс : Установленный внешний ASPI-интерфейс
Выходной формат : Пользовательский кодировщик
Выбранный битрейт : 896 kBit/s
Качество : Высокий
Добавление ID3-тега : Нет
Утилита сжатия : C:\Program Files (x86)\Exact Audio Copy\FLAC\FLAC.EXE
Дополнительные параметры : -6 -V -T "ARTIST=%artist%" -T "TITLE=%title%" -T "ALBUM=%albumtitle%" -T "DATE=%year%" -T "TRACKNUMBER=%tracknr%" -T "GENRE=%genre%" -T "COMMENT=%comment%" -T "BAND=%albuminterpret%" -T "ALBUMARTIST=%albuminterpret%" -T "COMPOSER=%composer%" %haslyrics%--tag-from-file=LYRICS="%lyricsfile%"%haslyrics% -T "DISCNUMBER=%cdnumber%" -T "TOTALDISCS=%totalcds%" -T "TOTALTRACKS=%numtracks%" %hascover%--picture="%coverfile%"%hascover% %source% -o %dest%
TOC извлечённого CD
Трек | Старт | Длительность | Начальный сектор | Конечный сектор
---------------------------------------------------------------------
1 | 0:00.00 | 3:05.12 | 0 | 13886
2 | 3:05.12 | 5:12.26 | 13887 | 37312
3 | 8:17.38 | 4:42.59 | 37313 | 58521
4 | 13:00.22 | 4:21.54 | 58522 | 78150
5 | 17:22.01 | 2:08.32 | 78151 | 87782
6 | 19:30.33 | 5:08.24 | 87783 | 110906
7 | 24:38.57 | 4:57.20 | 110907 | 133201
8 | 29:36.02 | 2:48.29 | 133202 | 145830
9 | 32:24.31 | 4:49.44 | 145831 | 167549
Характеристики диапазона извлечения и сообщения об ошибках
Выбранный диапазон
Имя файла E:\Torrents\Black Sugar - 1971 - Black Sugar\Black Sugar - Black Sugar.wav
Пиковый уровень 100.0 %
Скорость извлечения 8.0 X
Качество диапазона 99.9 %
CRC теста 466F8080
CRC копии 466F8080
Копирование... OK
Ошибок не произошло
Конец отчёта
==== Контрольная сумма отчёта 903C0D8A98D46F58E09A84D6AFC4D524C12346B57E4ECBB1EB4415FA916B5695 ====
Приватный:
Нет (DHT включён)
Размер:
247.55 Мб (259,571,587 байт) » файлов: 7
Участники:
0 раздают, 0 качают (0 участников всего)
Внешние участники:
1 раздают, 0 качают (1 участников всего) [ Обновить ]
Есть вопросы - пишите личное сообщение пользователю M0p94ok.
09:41
58
Нет комментариев. Ваш будет первым!