Поиск

(Rock, Funk / Soul) [CD] Ballin' Jack - Ballin' Jack/Buzzard Luck - 1970-1972, FLAC (image+.cue), lossless

(Rock, Funk / Soul) [CD] Ballin' Jack - Ballin' Jack/Buzzard Luck - 1970-1972, FLAC (image+.cue), lossless
Треклист:
Ballin' Jack / Ballin' Jack/Buzzard Luck
Жанр: Rock, Funk / Soul
Носитель: CD
Страна-производитель диска (релиза): EEC
Год издания: 1970-1972
Издатель (лейбл): Walhalla Records
Номер по каталогу: WH 90373
Страна исполнителя (группы): USA, Seattle
Аудиокодек: FLAC (*.flac)
Тип рипа: image+.cue
Битрейт аудио: lossless
Продолжительность: 01:11:36
Источник (релизер): собственный рип
Наличие сканов в содержимом раздачи: да
Треклист:
Ballin' Jack, 1970:
1 Found A Child
2 Super Highway
3 Festival
4 Telephone
5 Only A Tear
6 Never Let 'Em Say
7 Street People
8 Carnival
9 Ballin' The Jack
10 Hold On
Buzzard Luck, 1972:
11 So Do I
12 Good Man
13 (Come 'Round Here) I'm The One You Need
14 Stay Awhile
15 Trouble
16 Telling Lies
17 Country Pine
18 Playin' The Game
19 You And Me
20 Bye,Bye,Bye
 
Лог создания рипа
Exact Audio Copy V1.1 from 23. June 2015
Отчёт EAC об извлечении, выполненном 28. января 2016, 12:45
Ballin' Jack / Ballin' Jack, Buzzard Luck
Дисковод: ASUS DRW-24B3ST Adapter: 0 ID: 0
Режим чтения : Достоверность
Использование точного потока : Да
Отключение кэша аудио : Да
Использование указателей C2 : Нет
Коррекция смещения при чтении : 6
Способность читать области Lead-in и Lead-out : Нет
Заполнение пропущенных сэмплов тишиной : Да
Удаление блоков с тишиной в начале и конце : Нет
При вычислениях CRC использовались нулевые сэмплы : Да
Интерфейс : Установленный внешний ASPI-интерфейс
Выходной формат : Пользовательский кодировщик
Выбранный битрейт : 896 kBit/s
Качество : Высокий
Добавление ID3-тега : Нет
Утилита сжатия : C:\Program Files (x86)\Exact Audio Copy\FLAC\FLAC.EXE
Дополнительные параметры : -6 -V -T "ARTIST=%artist%" -T "TITLE=%title%" -T "ALBUM=%albumtitle%" -T "DATE=%year%" -T "TRACKNUMBER=%tracknr%" -T "GENRE=%genre%" -T "COMMENT=%comment%" -T "BAND=%albuminterpret%" -T "ALBUMARTIST=%albuminterpret%" -T "COMPOSER=%composer%" %haslyrics%--tag-from-file=LYRICS="%lyricsfile%"%haslyrics% -T "DISCNUMBER=%cdnumber%" -T "TOTALDISCS=%totalcds%" -T "TOTALTRACKS=%numtracks%" %hascover%--picture="%coverfile%"%hascover% %source% -o %dest%
TOC извлечённого CD
Трек | Старт | Длительность | Начальный сектор | Конечный сектор
---------------------------------------------------------------------
1 | 0:00.00 | 2:51.40 | 0 | 12864
2 | 2:51.40 | 2:44.35 | 12865 | 25199
3 | 5:36.00 | 4:32.29 | 25200 | 45628
4 | 10:08.29 | 2:10.40 | 45629 | 55418
5 | 12:18.69 | 2:12.00 | 55419 | 65318
6 | 14:30.69 | 2:46.11 | 65319 | 77779
7 | 17:17.05 | 2:01.01 | 77780 | 86855
8 | 19:18.06 | 6:14.11 | 86856 | 114916
9 | 25:32.17 | 1:55.66 | 114917 | 123607
10 | 27:28.08 | 6:44.01 | 123608 | 153908
11 | 34:12.09 | 5:04.45 | 153909 | 176753
12 | 39:16.54 | 2:38.17 | 176754 | 188620
13 | 41:54.71 | 3:39.65 | 188621 | 205110
14 | 45:34.61 | 3:09.44 | 205111 | 219329
15 | 48:44.30 | 3:32.30 | 219330 | 235259
16 | 52:16.60 | 3:45.09 | 235260 | 252143
17 | 56:01.69 | 3:55.39 | 252144 | 269807
18 | 59:57.33 | 2:27.74 | 269808 | 280906
19 | 62:25.32 | 3:11.22 | 280907 | 295253
20 | 65:36.54 | 5:58.38 | 295254 | 322141
Характеристики диапазона извлечения и сообщения об ошибках
Выбранный диапазон
Имя файла E:\Torrents\Ballin' Jack – 1970-71 - Ballin' Jack - Buzzard Luck\Ballin' Jack - Ballin' Jack, Buzzard Luck.wav
Пиковый уровень 97.7 %
Скорость извлечения 9.6 X
Качество диапазона 100.0 %
CRC теста B5947088
CRC копии B5947088
Копирование... OK
Ошибок не произошло
Конец отчёта
==== Контрольная сумма отчёта AD24FCC5DA9B9588E10B9DE62690A558E300796B4B6E48197100ED050950AE92 ====
 
Состав
Jim Coile - sax, flute, clarinet, back vocals
Ronnie Hammon - drums, percussion, back vocals
Tim McFarland - trombone, piano, back vocals
Luther Rabb - bass, back vocals
Glenn Thomas - guitar, back vocals
Jim Walters - trumpet, lead vocals
Приватный:
Нет (DHT включён)
Размер:
465.82 Мб (488,450,000 байт) » файлов: 8
Участники:
0 раздают, 0 качают (0 участников всего)
Внешние участники:
5 раздают, 2 качают (7 участников всего) [ Обновить ]
Есть вопросы - пишите личное сообщение пользователю M0p94ok.
09:43
92
Нет комментариев. Ваш будет первым!