Поиск

(Jazz, Soul, Jazz-Funk) [CD] Ben Sidran - Don't Let Go (SHM-CD Universal Japan 2010) - 1974, FLAC (image+.cue), lossless

(Jazz, Soul, Jazz-Funk) [CD] Ben Sidran - Don't Let Go (SHM-CD Universal Japan 2010) - 1974, FLAC (image+.cue), lossless
Треклист:
Ben Sidran / Don't Let Go (SHM-CD Universal Japan 2010)
Жанр: Jazz, Soul, Jazz-Funk
Носитель: CD
Страна-производитель диска (релиза): Japan
Год издания: 1974
Издатель (лейбл): Blue Thumb Records
Номер по каталогу: UICY-93416
Страна исполнителя (группы): USA, Chicago
Аудиокодек: FLAC (*.flac)
Тип рипа: image+.cue
Битрейт аудио: lossless
Продолжительность: 00:37:26
Источник (релизер): собственный рип
Наличие сканов в содержимом раздачи: да
Треклист:
1. Fat Jam [Instrumental]
2. House of Blue Lites
3. Ben Sidran's Midnite Tango
4. Chicken Glide [Instrumental]
5. She's Funny That Way (I Got a Woman, Crazy for Me)
6. Monopoly [Instrumental]
7. Don't Let Go [Instrumental]
8. Hey Hey Baby
9. Foolkiller
10. Funky Elephant [Instrumental]
11. Snatch [Instrumental]
12. Down to the Bone
 
Лог создания рипа
Exact Audio Copy V1.1 from 23. June 2015
Отчёт EAC об извлечении, выполненном 28. января 2016, 20:31
Ben Sidran / Don't Let Go
Дисковод: ASUS DRW-24B3ST Adapter: 0 ID: 0
Режим чтения : Достоверность
Использование точного потока : Да
Отключение кэша аудио : Да
Использование указателей C2 : Нет
Коррекция смещения при чтении : 6
Способность читать области Lead-in и Lead-out : Нет
Заполнение пропущенных сэмплов тишиной : Да
Удаление блоков с тишиной в начале и конце : Нет
При вычислениях CRC использовались нулевые сэмплы : Да
Интерфейс : Установленный внешний ASPI-интерфейс
Выходной формат : Пользовательский кодировщик
Выбранный битрейт : 896 kBit/s
Качество : Высокий
Добавление ID3-тега : Нет
Утилита сжатия : C:\Program Files (x86)\Exact Audio Copy\FLAC\FLAC.EXE
Дополнительные параметры : -6 -V -T "ARTIST=%artist%" -T "TITLE=%title%" -T "ALBUM=%albumtitle%" -T "DATE=%year%" -T "TRACKNUMBER=%tracknr%" -T "GENRE=%genre%" -T "COMMENT=%comment%" -T "BAND=%albuminterpret%" -T "ALBUMARTIST=%albuminterpret%" -T "COMPOSER=%composer%" %haslyrics%--tag-from-file=LYRICS="%lyricsfile%"%haslyrics% -T "DISCNUMBER=%cdnumber%" -T "TOTALDISCS=%totalcds%" -T "TOTALTRACKS=%numtracks%" %hascover%--picture="%coverfile%"%hascover% %source% -o %dest%
TOC извлечённого CD
Трек | Старт | Длительность | Начальный сектор | Конечный сектор
---------------------------------------------------------------------
1 | 0:00.00 | 3:25.69 | 0 | 15443
2 | 3:25.69 | 3:13.12 | 15444 | 29930
3 | 6:39.06 | 2:40.56 | 29931 | 41986
4 | 9:19.62 | 3:45.71 | 41987 | 58932
5 | 13:05.58 | 3:36.43 | 58933 | 75175
6 | 16:42.26 | 1:31.17 | 75176 | 82017
7 | 18:13.43 | 3:18.61 | 82018 | 96928
8 | 21:32.29 | 3:31.17 | 96929 | 112770
9 | 25:03.46 | 3:44.37 | 112771 | 129607
10 | 28:48.08 | 3:30.27 | 129608 | 145384
11 | 32:18.35 | 3:51.23 | 145385 | 162732
12 | 36:09.58 | 1:16.33 | 162733 | 168465
Характеристики диапазона извлечения и сообщения об ошибках
Выбранный диапазон
Имя файла E:\Torrents\Ben Sidran - 1974 - Don't Let Go\Ben Sidran - Don't Let Go.wav
Пиковый уровень 98.8 %
Скорость извлечения 2.8 X
Качество диапазона 100.0 %
CRC теста A5C6A84A
CRC копии A5C6A84A
Копирование... OK
Ошибок не произошло
Конец отчёта
==== Контрольная сумма отчёта 92987F982A320008B6D6FAA8C884E6A9BB54B6CB89CC029A75016250FB5B508A ====
 
Состав
Alto Saxophone – Bunky Green
Arranged By [Horns] – Sonny Burke
Arranged By [Strings] – Les Hooper
Art Direction – John P. Schmelzer
Bass – Kip Merklein, Phil Upchurch, Randy Fullerton
Drums – Tom Piazza
Drums, Percussion – Clyde Stubblefield, George Brown, Phil Upchurch
Guitar – James P. Cooke, Phil Upchurch
Harmonica – Jerry Alexander
Organ – Jim Peterman
Piano, Vocals – Ben Sidran
Tenor Saxophone – Sonny Seals
Приватный:
Нет (DHT включён)
Размер:
265.40 Мб (278,286,947 байт) » файлов: 8
Участники:
0 раздают, 0 качают (0 участников всего)
Внешние участники:
2 раздают, 1 качают (3 участников всего) [ Обновить ]
No seeders - write a personal message to user M0p94ok. Нет сидеров - пишите личное сообщение пользователю M0p94ok.
09:44
83
Нет комментариев. Ваш будет первым!