Поиск

(Soul, Vocal Jazz) [CD] The Supremes - At The Copa (1965) (2CD) - 2012 {Expanded Edition}, FLAC (tracks+.cue), lossless

(Soul, Vocal Jazz) [CD] The Supremes - At The Copa (1965) (2CD) - 2012 {Expanded Edition}, FLAC (tracks+.cue), lossless
Треклист:
The Supremes - At The Copa (2CD)

Жанр: Soul, Vocal Jazz, Motown | Носитель: CD | Страна-производитель диска: EU
Год издания: 2012 | Издатель (лейбл): Hip-O Select | Номер по каталогу: 0602527966854
Аудиокодек: FLAC (*.flac) | Тип рипа: tracks+.cue | Битрейт аудио: lossless
Продолжительность: 76:48 / 61:18 | Rip by Olivierito
Наличие сканов в содержимом раздачи: да 
 
 
 
Об издании
Expanded Edition
On May 12, 2012, Universal Music Group released At the Copa: Expanded Edition, a two-disc limited edition re-release. Disc one contains the digitally remastered original stereo album – an album that, owing to then-insurmountable technical problems, used lead vocals overdubbed by Diana Ross in the studio. Also on disc one are 10 specially selected, previously unreleased original mono reference mixes, with Ms. Ross’s original live vocals. Disc two features the full Copa show, as only the audience would have experienced it in 1965, in a brand-new mix that compiles the best performances from six recorded shows. Technology allowed the producers to overcome issues that vexed their 1960s counterparts, resulting not only in the use of the original lead vocals but the inclusion of songs cut from the original release: the opening number “From This Moment On,” their hits “Where Did Our Love Go” and “Nothing But Heartaches,” and classic show tunes including “Tonight/The Way You Look Tonight,” and “Enjoy Yourself (It’s Later Than You Think).”~ Wikipedia ~
 
CD 1
Треклист:
01. Opening Introduction (0:19)
02. Put On A Happy Face (2:13)
03. I Am Woman (2:27)
04. Baby Love (2:36)
05. Stop! In The Name Of Love (2:00)
06. The Boy From Ipanema (3:05)
07. Make Someone Happy / Time After Time (4:12)
08. Come See About Me (2:36)
09. Rock-A-Bye Your Baby With A Dixie Melody (2:55)
10. Queen Of The House (3:06)
11. Group Introduction (0:50)
12. Somewhere (3:48)
13. Back In My Arms Again (2:39)
14. Sam Cooke Medley (7:37)
15. You're Nobody 'Til Somebody Loves You (3:12)
16. Put On A Happy Face (alt mono mix) (2:15)
17. Stop! In The Name Of Love (alt mono mix) (1:59)
18. The Boy From Ipanema (alt mono mix) (3:01)
19. Come See About Me (alt mono mix) (2:29)
20. Enjoy Yourself (It's Later Than You Think) (alt mono mix) (4:36)
21. Rock-A-Bye Your Baby With A Dixie Melody (alt mono mix) (3:01)
22. Where Did Our Love Go (alt mono mix) (2:46)
23. Nothing But Heartaches (alt mono mix) (2:57)
24. Back In My Arms Again (alt mono mix) (2:41)
25. Sam Cooke Medley (alt mono mix) (7:30)
Rec.: Copacabana Nightclub, Manhattan, New York City, NY, August 1965.
 
 
Лог создания рипа
Exact Audio Copy V1.3 from 2. September 2016
EAC extraction logfile from 30. December 2016, 16:24
The Supremes / The Supremes At The Copa Expanded Edition CD1
Used drive : TSSTcorpCDDVDW SE-208AB Adapter: 2 ID: 0
Read mode : Secure
Utilize accurate stream : Yes
Defeat audio cache : Yes
Make use of C2 pointers : No
Read offset correction : 6
Overread into Lead-In and Lead-Out : No
Fill up missing offset samples with silence : Yes
Delete leading and trailing silent blocks : No
Null samples used in CRC calculations : Yes
Used interface : Installed external ASPI interface
Gap handling : Appended to previous track
Used output format : User Defined Encoder
Selected bitrate : 768 kBit/s
Quality : High
Add ID3 tag : No
Command line compressor : C:\Program Files (x86)\Exact Audio Copy\Flac\flac.exe
Additional command line options : -8 -V -T "ARTIST=%artist%" -T "TITLE=%title%" -T "ALBUM=%albumtitle%" -T "DATE=%year%" -T "TRACKNUMBER=%tracknr%" -T "GENRE=%genre%" -T "COMMENT=%comment%" -T "BAND=%albuminterpret%" -T "ALBUMARTIST=%albuminterpret%" -T "COMPOSER=%composer%" %haslyrics%--tag-from-file=LYRICS="%lyricsfile%"%haslyrics% -T "DISCNUMBER=%cdnumber%" -T "TOTALDISCS=%totalcds%" -T "TOTALTRACKS=%numtracks%" %hascover%--picture="%coverfile%"%hascover% %source% -o %dest%
TOC of the extracted CD
Track | Start | Length | Start sector | End sector
---------------------------------------------------------
1 | 0:00.00 | 0:18.47 | 0 | 1396
2 | 0:18.47 | 2:12.41 | 1397 | 11337
3 | 2:31.13 | 2:27.01 | 11338 | 22363
4 | 4:58.14 | 2:36.31 | 22364 | 34094
5 | 7:34.45 | 1:59.50 | 34095 | 43069
6 | 9:34.20 | 3:04.45 | 43070 | 56914
7 | 12:38.65 | 4:12.03 | 56915 | 75817
8 | 16:50.68 | 2:36.16 | 75818 | 87533
9 | 19:27.09 | 2:54.70 | 87534 | 100653
10 | 22:22.04 | 3:05.57 | 100654 | 114585
11 | 25:27.61 | 0:49.40 | 114586 | 118300
12 | 26:17.26 | 3:48.08 | 118301 | 135408
13 | 30:05.34 | 2:39.11 | 135409 | 147344
14 | 32:44.45 | 7:37.00 | 147345 | 181619
15 | 40:21.45 | 3:12.10 | 181620 | 196029
16 | 43:33.55 | 2:15.16 | 196030 | 206170
17 | 45:48.71 | 1:59.19 | 206171 | 215114
18 | 47:48.15 | 3:00.55 | 215115 | 228669
19 | 50:48.70 | 2:28.71 | 228670 | 239840
20 | 53:17.66 | 4:35.73 | 239841 | 260538
21 | 57:53.64 | 3:00.46 | 260539 | 274084
22 | 60:54.35 | 2:45.70 | 274085 | 286529
23 | 63:40.30 | 2:56.69 | 286530 | 299798
24 | 66:37.24 | 2:40.56 | 299799 | 311854
25 | 69:18.05 | 7:29.55 | 311855 | 345584
Track 1
Filename C:\Program Files (x86)\Exact Audio Copy\Flac\01. Opening Introduction.wav
Pre-gap length 0:00:02.00
Peak level 59.3 %
Extraction speed 0.4 X
Track quality 100.0 %
Test CRC CFE08869
Copy CRC CFE08869
Accurately ripped (confidence 10) [2645EC88] (AR v2)
Copy OK
Track 2
Filename C:\Program Files (x86)\Exact Audio Copy\Flac\02. Put On A Happy Face.wav
Peak level 83.9 %
Extraction speed 1.1 X
Track quality 100.0 %
Test CRC 991CA0ED
Copy CRC 991CA0ED
Accurately ripped (confidence 10) [F62F7CAA] (AR v2)
Copy OK
Track 3
Filename C:\Program Files (x86)\Exact Audio Copy\Flac\03. I Am Woman.wav
Peak level 73.5 %
Extraction speed 1.1 X
Track quality 100.0 %
Test CRC 6EFDFC0A
Copy CRC 6EFDFC0A
Accurately ripped (confidence 10) [DB1CD46E] (AR v2)
Copy OK
Track 4
Filename C:\Program Files (x86)\Exact Audio Copy\Flac\04. Baby Love.wav
Peak level 84.4 %
Extraction speed 1.2 X
Track quality 100.0 %
Test CRC 2DEF4ADA
Copy CRC 2DEF4ADA
Accurately ripped (confidence 10) [194CA291] (AR v2)
Copy OK
Track 5
Filename C:\Program Files (x86)\Exact Audio Copy\Flac\05. Stop! In The Name Of Love.wav
Peak level 77.4 %
Extraction speed 1.2 X
Track quality 100.0 %
Test CRC 90B57C3A
Copy CRC 90B57C3A
Accurately ripped (confidence 10) [C3B7BD18] (AR v2)
Copy OK
Track 6
Filename C:\Program Files (x86)\Exact Audio Copy\Flac\06. The Boy From Ipanema.wav
Peak level 82.0 %
Extraction speed 1.2 X
Track quality 99.9 %
Test CRC 3C419F52
Copy CRC 3C419F52
Accurately ripped (confidence 10) [6CB5A992] (AR v2)
Copy OK
Track 7
Filename C:\Program Files (x86)\Exact Audio Copy\Flac\07. Make Someone Happy , Time After Time.wav
Peak level 78.3 %
Extraction speed 1.5 X
Track quality 100.0 %
Test CRC D878C4BF
Copy CRC D878C4BF
Accurately ripped (confidence 10) [746DBF85] (AR v2)
Copy OK
Track 8
Filename C:\Program Files (x86)\Exact Audio Copy\Flac\08. Come See About Me.wav
Peak level 87.0 %
Extraction speed 1.5 X
Track quality 100.0 %
Test CRC 96118CB2
Copy CRC 96118CB2
Accurately ripped (confidence 10) [55D06A87] (AR v2)
Copy OK
Track 9
Filename C:\Program Files (x86)\Exact Audio Copy\Flac\09. Rock-A-Bye Your Baby With A Dixie Melody.wav
Peak level 80.5 %
Extraction speed 1.3 X
Track quality 99.9 %
Test CRC BC433464
Copy CRC BC433464
Accurately ripped (confidence 10) [D1F0A3E8] (AR v2)
Copy OK
Track 10
Filename C:\Program Files (x86)\Exact Audio Copy\Flac\10. Queen Of The House.wav
Pre-gap length 0:00:00.23
Peak level 92.0 %
Extraction speed 1.7 X
Track quality 100.0 %
Test CRC 332D5B6B
Copy CRC 332D5B6B
Accurately ripped (confidence 10) [9AEB4412] (AR v2)
Copy OK
Track 11
Filename C:\Program Files (x86)\Exact Audio Copy\Flac\11. Group Introduction.wav
Peak level 60.4 %
Extraction speed 1.1 X
Track quality 100.0 %
Test CRC 95CCA4E7
Copy CRC 95CCA4E7
Accurately ripped (confidence 10) [414E359A] (AR v2)
Copy OK
Track 12
Filename C:\Program Files (x86)\Exact Audio Copy\Flac\12. Somewhere.wav
Peak level 87.8 %
Extraction speed 1.8 X
Track quality 100.0 %
Test CRC 35AB643D
Copy CRC 35AB643D
Accurately ripped (confidence 10) [FF9490EA] (AR v2)
Copy OK
Track 13
Filename C:\Program Files (x86)\Exact Audio Copy\Flac\13. Back In My Arms Again.wav
Peak level 85.7 %
Extraction speed 1.7 X
Track quality 100.0 %
Test CRC E592123B
Copy CRC E592123B
Accurately ripped (confidence 10) [C36574D8] (AR v2)
Copy OK
Track 14
Filename C:\Program Files (x86)\Exact Audio Copy\Flac\14. Sam Cooke Medley.wav
Peak level 92.0 %
Extraction speed 2.1 X
Track quality 100.0 %
Test CRC E4538AD5
Copy CRC E4538AD5
Accurately ripped (confidence 10) [E4F61342] (AR v2)
Copy OK
Track 15
Filename C:\Program Files (x86)\Exact Audio Copy\Flac\15. You're Nobody 'Til Somebody Loves You.wav
Peak level 90.1 %
Extraction speed 2.0 X
Track quality 100.0 %
Test CRC ECD52A8B
Copy CRC ECD52A8B
Accurately ripped (confidence 10) [2C15B211] (AR v2)
Copy OK
Track 16
Filename C:\Program Files (x86)\Exact Audio Copy\Flac\16. Put On A Happy Face (alt mono mix).wav
Pre-gap length 0:00:03.60
Peak level 61.8 %
Extraction speed 1.9 X
Track quality 100.0 %
Test CRC 90A2552E
Copy CRC 90A2552E
Accurately ripped (confidence 10) [843EDC22] (AR v2)
Copy OK
Track 17
Filename C:\Program Files (x86)\Exact Audio Copy\Flac\17. Stop! In The Name Of Love (alt mono mix).wav
Peak level 66.2 %
Extraction speed 1.9 X
Track quality 100.0 %
Test CRC C8B49767
Copy CRC C8B49767
Accurately ripped (confidence 10) [517E2C15] (AR v2)
Copy OK
Track 18
Filename C:\Program Files (x86)\Exact Audio Copy\Flac\18. The Boy From Ipanema (alt mono mix).wav
Peak level 61.5 %
Extraction speed 2.1 X
Track quality 100.0 %
Test CRC F7508DC9
Copy CRC F7508DC9
Accurately ripped (confidence 10) [8141A3BB] (AR v2)
Copy OK
Track 19
Filename C:\Program Files (x86)\Exact Audio Copy\Flac\19. Come See About Me (alt mono mix).wav
Peak level 75.2 %
Extraction speed 2.0 X
Track quality 100.0 %
Test CRC EA660E7B
Copy CRC EA660E7B
Accurately ripped (confidence 10) [E44AFABF] (AR v2)
Copy OK
Track 20
Filename C:\Program Files (x86)\Exact Audio Copy\Flac\20. Enjoy Yourself (It's Later Than You Think) (alt mono mix).wav
Peak level 68.5 %
Extraction speed 2.2 X
Track quality 100.0 %
Test CRC 28CBFBA3
Copy CRC 28CBFBA3
Accurately ripped (confidence 9) [9E9EA613] (AR v2)
Copy OK
Track 21
Filename C:\Program Files (x86)\Exact Audio Copy\Flac\21. Rock-A-Bye Your Baby With A Dixie Melody (alt mono mix).wav
Peak level 67.9 %
Extraction speed 1.8 X
Track quality 99.9 %
Test CRC F06179E4
Copy CRC F06179E4
Accurately ripped (confidence 10) [472AC5D5] (AR v2)
Copy OK
Track 22
Filename C:\Program Files (x86)\Exact Audio Copy\Flac\22. Where Did Our Love Go (alt mono mix).wav
Pre-gap length 0:00:00.53
Peak level 72.1 %
Extraction speed 2.2 X
Track quality 100.0 %
Test CRC 296D6228
Copy CRC 296D6228
Accurately ripped (confidence 10) [0AE20F6F] (AR v2)
Copy OK
Track 23
Filename C:\Program Files (x86)\Exact Audio Copy\Flac\23. Nothing But Heartaches (alt mono mix).wav
Peak level 81.3 %
Extraction speed 1.9 X
Track quality 99.9 %
Test CRC 7296FDB1
Copy CRC 7296FDB1
Accurately ripped (confidence 9) [C3DD8061] (AR v2)
Copy OK
Track 24
Filename C:\Program Files (x86)\Exact Audio Copy\Flac\24. Back In My Arms Again (alt mono mix).wav
Peak level 75.7 %
Extraction speed 2.2 X
Track quality 100.0 %
Test CRC 1BD905A5
Copy CRC 1BD905A5
Accurately ripped (confidence 9) [6C894907] (AR v2)
Copy OK
Track 25
Filename C:\Program Files (x86)\Exact Audio Copy\Flac\25. Sam Cooke Medley (alt mono mix).wav
Peak level 81.1 %
Extraction speed 2.6 X
Track quality 100.0 %
Test CRC 355CB308
Copy CRC 355CB308
Accurately ripped (confidence 9) [684FC014] (AR v2)
Copy OK
All tracks accurately ripped
No errors occurred
End of status report
---- CUETools DB Plugin V2.1.6
[CTDB TOCID: Z8adDDdxzZ2DXNirSy0yEK1MEGw-] found
Submit result: Z8adDDdxzZ2DXNirSy0yEK1MEGw- has been confirmed
Track | CTDB Status
1 | (10/10) Accurately ripped
2 | (10/10) Accurately ripped
3 | (10/10) Accurately ripped
4 | (10/10) Accurately ripped
5 | (10/10) Accurately ripped
6 | (10/10) Accurately ripped
7 | (10/10) Accurately ripped
8 | (10/10) Accurately ripped
9 | (10/10) Accurately ripped
10 | (10/10) Accurately ripped
11 | (10/10) Accurately ripped
12 | (10/10) Accurately ripped
13 | (10/10) Accurately ripped
14 | (10/10) Accurately ripped
15 | (10/10) Accurately ripped
16 | (10/10) Accurately ripped
17 | (10/10) Accurately ripped
18 | (10/10) Accurately ripped
19 | (10/10) Accurately ripped
20 | (10/10) Accurately ripped
21 | (10/10) Accurately ripped
22 | (10/10) Accurately ripped
23 | (10/10) Accurately ripped
24 | (10/10) Accurately ripped
25 | (10/10) Accurately ripped
==== Log checksum 9BA4FD95190CEFC8078ACB04CB3731ADBE9A9A1ACAC169E3B8E4954A9D45ED48 ====
 
Содержание индексной карты (.CUE)
REM GENRE Soul
REM DATE 1965
REM DISCID 6211FF19
REM COMMENT "ExactAudioCopy v1.3"
PERFORMER "The Supremes"
TITLE "The Supremes At The Copa Expanded Edition CD1"
REM COMPOSER ""
FILE "01. Opening Introduction.wav" WAVE
TRACK 01 AUDIO
TITLE "Opening Introduction"
PERFORMER "The Supremes"
REM COMPOSER ""
FLAGS DCP
INDEX 01 00:00:00
FILE "02. Put On A Happy Face.wav" WAVE
TRACK 02 AUDIO
TITLE "Put On A Happy Face"
PERFORMER "The Supremes"
REM COMPOSER ""
FLAGS DCP
INDEX 01 00:00:00
FILE "03. I Am Woman.wav" WAVE
TRACK 03 AUDIO
TITLE "I Am Woman"
PERFORMER "The Supremes"
REM COMPOSER ""
FLAGS DCP
INDEX 01 00:00:00
FILE "04. Baby Love.wav" WAVE
TRACK 04 AUDIO
TITLE "Baby Love"
PERFORMER "The Supremes"
REM COMPOSER ""
FLAGS DCP
INDEX 01 00:00:00
FILE "05. Stop! In The Name Of Love.wav" WAVE
TRACK 05 AUDIO
TITLE "Stop! In The Name Of Love"
PERFORMER "The Supremes"
REM COMPOSER ""
FLAGS DCP
INDEX 01 00:00:00
FILE "06. The Boy From Ipanema.wav" WAVE
TRACK 06 AUDIO
TITLE "The Boy From Ipanema"
PERFORMER "The Supremes"
REM COMPOSER ""
FLAGS DCP
INDEX 01 00:00:00
FILE "07. Make Someone Happy , Time After Time.wav" WAVE
TRACK 07 AUDIO
TITLE "Make Someone Happy / Time After Time"
PERFORMER "The Supremes"
REM COMPOSER ""
FLAGS DCP
INDEX 01 00:00:00
FILE "08. Come See About Me.wav" WAVE
TRACK 08 AUDIO
TITLE "Come See About Me"
PERFORMER "The Supremes"
REM COMPOSER ""
FLAGS DCP
INDEX 01 00:00:00
FILE "09. Rock-A-Bye Your Baby With A Dixie Melody.wav" WAVE
TRACK 09 AUDIO
TITLE "Rock-A-Bye Your Baby With A Dixie Melody"
PERFORMER "The Supremes"
REM COMPOSER ""
FLAGS DCP
INDEX 01 00:00:00
TRACK 10 AUDIO
TITLE "Queen Of The House"
PERFORMER "The Supremes"
REM COMPOSER ""
FLAGS DCP
INDEX 00 02:54:47
FILE "10. Queen Of The House.wav" WAVE
INDEX 01 00:00:00
FILE "11. Group Introduction.wav" WAVE
TRACK 11 AUDIO
TITLE "Group Introduction"
PERFORMER "The Supremes"
REM COMPOSER ""
FLAGS DCP
INDEX 01 00:00:00
FILE "12. Somewhere.wav" WAVE
TRACK 12 AUDIO
TITLE "Somewhere"
PERFORMER "The Supremes"
REM COMPOSER ""
FLAGS DCP
INDEX 01 00:00:00
FILE "13. Back In My Arms Again.wav" WAVE
TRACK 13 AUDIO
TITLE "Back In My Arms Again"
PERFORMER "The Supremes"
REM COMPOSER ""
FLAGS DCP
INDEX 01 00:00:00
FILE "14. Sam Cooke Medley.wav" WAVE
TRACK 14 AUDIO
TITLE "Sam Cooke Medley"
PERFORMER "The Supremes"
REM COMPOSER ""
FLAGS DCP
INDEX 01 00:00:00
FILE "15. You're Nobody 'Til Somebody Loves You.wav" WAVE
TRACK 15 AUDIO
TITLE "You're Nobody 'Til Somebody Loves You"
PERFORMER "The Supremes"
REM COMPOSER ""
FLAGS DCP
INDEX 01 00:00:00
TRACK 16 AUDIO
TITLE "Put On A Happy Face (alt mono mix)"
PERFORMER "The Supremes"
REM COMPOSER ""
FLAGS DCP
INDEX 00 03:08:25
FILE "16. Put On A Happy Face (alt mono mix).wav" WAVE
INDEX 01 00:00:00
FILE "17. Stop! In The Name Of Love (alt mono mix).wav" WAVE
TRACK 17 AUDIO
TITLE "Stop! In The Name Of Love (alt mono mix)"
PERFORMER "The Supremes"
REM COMPOSER ""
FLAGS DCP
INDEX 01 00:00:00
FILE "18. The Boy From Ipanema (alt mono mix).wav" WAVE
TRACK 18 AUDIO
TITLE "The Boy From Ipanema (alt mono mix)"
PERFORMER "The Supremes"
REM COMPOSER ""
FLAGS DCP
INDEX 01 00:00:00
FILE "19. Come See About Me (alt mono mix).wav" WAVE
TRACK 19 AUDIO
TITLE "Come See About Me (alt mono mix)"
PERFORMER "The Supremes"
REM COMPOSER ""
FLAGS DCP
INDEX 01 00:00:00
FILE "20. Enjoy Yourself (It's Later Than You Think) (alt mono mix).wav" WAVE
TRACK 20 AUDIO
TITLE "Enjoy Yourself (It's Later Than You Think) (alt mono mix)"
PERFORMER "The Supremes"
REM COMPOSER ""
FLAGS DCP
INDEX 01 00:00:00
FILE "21. Rock-A-Bye Your Baby With A Dixie Melody (alt mono mix).wav" WAVE
TRACK 21 AUDIO
TITLE "Rock-A-Bye Your Baby With A Dixie Melody (alt mono mix)"
PERFORMER "The Supremes"
REM COMPOSER ""
FLAGS DCP
INDEX 01 00:00:00
TRACK 22 AUDIO
TITLE "Where Did Our Love Go (alt mono mix)"
PERFORMER "The Supremes"
REM COMPOSER ""
FLAGS DCP
INDEX 00 02:59:68
FILE "22. Where Did Our Love Go (alt mono mix).wav" WAVE
INDEX 01 00:00:00
FILE "23. Nothing But Heartaches (alt mono mix).wav" WAVE
TRACK 23 AUDIO
TITLE "Nothing But Heartaches (alt mono mix)"
PERFORMER "The Supremes"
REM COMPOSER ""
FLAGS DCP
INDEX 01 00:00:00
FILE "24. Back In My Arms Again (alt mono mix).wav" WAVE
TRACK 24 AUDIO
TITLE "Back In My Arms Again (alt mono mix)"
PERFORMER "The Supremes"
REM COMPOSER ""
FLAGS DCP
INDEX 01 00:00:00
FILE "25. Sam Cooke Medley (alt mono mix).wav" WAVE
TRACK 25 AUDIO
TITLE "Sam Cooke Medley (alt mono mix)"
PERFORMER "The Supremes"
REM COMPOSER ""
FLAGS DCP
INDEX 01 00:00:00
 
CD 2
Треклист:
01. Opening Introduction (0:36)
02. From This Moment On (1:59)
03. Put On A Happy Face (2:04)
04. Tonight / The Way You Look Tonight (2:24)
05. Baby Love (2:44)
06. Stop! In The Name Of Love (1:59)
07. The Boy From Ipanema (3:03)
08. Where Did Our Love Go (3:05)
09. I Am Woman (2:54)
10. Band Introduction (0:40)
11. Make Someone Happy / Time After Time (4:15)
12. Come See About Me (2:39)
13. Rock-A-Bye Your Baby With A Dixie Melody (3:20)
14. Queen Of The House (3:01)
15. Group Introduction (0:50)
16. Somewhere (3:54)
17. Nothing But Heartaches (2:59)
18. Enjoy Yourself (It's Later Than You Think) (4:39)
19. Back In My Arms Again (2:39)
20. Sam Cooke Medley (7:42)
21. You're Nobody 'Til Somebody Loves You (3:51)
 
 
Лог создания рипа
Exact Audio Copy V1.3 from 2. September 2016
EAC extraction logfile from 30. December 2016, 19:52
The Supremes / The Supremes At The Copa Expanded Edition CD2
Used drive : TSSTcorpCDDVDW SE-208AB Adapter: 2 ID: 0
Read mode : Secure
Utilize accurate stream : Yes
Defeat audio cache : Yes
Make use of C2 pointers : No
Read offset correction : 6
Overread into Lead-In and Lead-Out : No
Fill up missing offset samples with silence : Yes
Delete leading and trailing silent blocks : No
Null samples used in CRC calculations : Yes
Used interface : Installed external ASPI interface
Gap handling : Appended to previous track
Used output format : User Defined Encoder
Selected bitrate : 768 kBit/s
Quality : High
Add ID3 tag : No
Command line compressor : C:\Program Files (x86)\Exact Audio Copy\Flac\flac.exe
Additional command line options : -8 -V -T "ARTIST=%artist%" -T "TITLE=%title%" -T "ALBUM=%albumtitle%" -T "DATE=%year%" -T "TRACKNUMBER=%tracknr%" -T "GENRE=%genre%" -T "COMMENT=%comment%" -T "BAND=%albuminterpret%" -T "ALBUMARTIST=%albuminterpret%" -T "COMPOSER=%composer%" %haslyrics%--tag-from-file=LYRICS="%lyricsfile%"%haslyrics% -T "DISCNUMBER=%cdnumber%" -T "TOTALDISCS=%totalcds%" -T "TOTALTRACKS=%numtracks%" %hascover%--picture="%coverfile%"%hascover% %source% -o %dest%
TOC of the extracted CD
Track | Start | Length | Start sector | End sector
---------------------------------------------------------
1 | 0:00.00 | 0:35.71 | 0 | 2695
2 | 0:35.71 | 1:58.71 | 2696 | 11616
3 | 2:34.67 | 2:03.52 | 11617 | 20893
4 | 4:38.44 | 2:24.07 | 20894 | 31700
5 | 7:02.51 | 2:44.13 | 31701 | 44013
6 | 9:46.64 | 1:59.08 | 44014 | 52946
7 | 11:45.72 | 3:02.59 | 52947 | 66655
8 | 14:48.56 | 3:05.25 | 66656 | 80555
9 | 17:54.06 | 2:54.08 | 80556 | 93613
10 | 20:48.14 | 0:39.66 | 93614 | 96604
11 | 21:28.05 | 4:14.61 | 96605 | 115715
12 | 25:42.66 | 2:39.26 | 115716 | 127666
13 | 28:22.17 | 3:19.44 | 127667 | 142635
14 | 31:41.61 | 3:01.34 | 142636 | 156244
15 | 34:43.20 | 0:50.06 | 156245 | 160000
16 | 35:33.26 | 3:54.32 | 160001 | 177582
17 | 39:27.58 | 2:59.26 | 177583 | 191033
18 | 42:27.09 | 4:39.10 | 191034 | 211968
19 | 47:06.19 | 2:38.55 | 211969 | 223873
20 | 49:44.74 | 7:41.65 | 223874 | 258513
21 | 57:26.64 | 3:50.66 | 258514 | 275829
Track 1
Filename C:\Program Files (x86)\Exact Audio Copy\Flac\01. Opening Introduction.wav
Pre-gap length 0:00:02.00
Peak level 96.7 %
Extraction speed 0.6 X
Track quality 100.0 %
Test CRC DC7BCCDE
Copy CRC DC7BCCDE
Accurately ripped (confidence 11) [E52253EF] (AR v2)
Copy OK
Track 2
Filename C:\Program Files (x86)\Exact Audio Copy\Flac\02. From This Moment On.wav
Peak level 98.6 %
Extraction speed 1.0 X
Track quality 100.0 %
Test CRC 168F479B
Copy CRC 168F479B
Accurately ripped (confidence 10) [38D34534] (AR v2)
Copy OK
Track 3
Filename C:\Program Files (x86)\Exact Audio Copy\Flac\03. Put On A Happy Face.wav
Peak level 100.0 %
Extraction speed 1.1 X
Track quality 100.0 %
Test CRC F35AE182
Copy CRC F35AE182
Accurately ripped (confidence 10) [3F9D5FEE] (AR v2)
Copy OK
Track 4
Filename C:\Program Files (x86)\Exact Audio Copy\Flac\04. Tonight , The Way You Look Tonight.wav
Peak level 99.6 %
Extraction speed 1.0 X
Track quality 99.9 %
Test CRC EB83E97D
Copy CRC EB83E97D
Accurately ripped (confidence 11) [44ACDE0F] (AR v2)
Copy OK
Track 5
Filename C:\Program Files (x86)\Exact Audio Copy\Flac\05. Baby Love.wav
Peak level 100.0 %
Extraction speed 1.3 X
Track quality 100.0 %
Test CRC FB3F48CA
Copy CRC FB3F48CA
Accurately ripped (confidence 11) [9532A636] (AR v2)
Copy OK
Track 6
Filename C:\Program Files (x86)\Exact Audio Copy\Flac\06. Stop! In The Name Of Love.wav
Peak level 100.0 %
Extraction speed 1.3 X
Track quality 100.0 %
Test CRC C6D892A4
Copy CRC C6D892A4
Accurately ripped (confidence 11) [055F023E] (AR v2)
Copy OK
Track 7
Filename C:\Program Files (x86)\Exact Audio Copy\Flac\07. The Boy From Ipanema.wav
Peak level 99.0 %
Extraction speed 1.4 X
Track quality 100.0 %
Test CRC 9E647638
Copy CRC 9E647638
Accurately ripped (confidence 11) [A9823E8D] (AR v2)
Copy OK
Track 8
Filename C:\Program Files (x86)\Exact Audio Copy\Flac\08. Where Did Our Love Go.wav
Peak level 100.0 %
Extraction speed 1.5 X
Track quality 100.0 %
Test CRC AF7AF137
Copy CRC AF7AF137
Accurately ripped (confidence 11) [0FAD3931] (AR v2)
Copy OK
Track 9
Filename C:\Program Files (x86)\Exact Audio Copy\Flac\09. I Am Woman.wav
Peak level 97.6 %
Extraction speed 1.5 X
Track quality 100.0 %
Test CRC E4FC3911
Copy CRC E4FC3911
Accurately ripped (confidence 11) [7886762E] (AR v2)
Copy OK
Track 10
Filename C:\Program Files (x86)\Exact Audio Copy\Flac\10. Band Introduction.wav
Peak level 63.3 %
Extraction speed 1.0 X
Track quality 100.0 %
Test CRC F1D4908A
Copy CRC F1D4908A
Accurately ripped (confidence 11) [5C4F2851] (AR v2)
Copy OK
Track 11
Filename C:\Program Files (x86)\Exact Audio Copy\Flac\11. Make Someone Happy , Time After Time.wav
Peak level 100.0 %
Extraction speed 1.7 X
Track quality 100.0 %
Test CRC BC30869C
Copy CRC BC30869C
Accurately ripped (confidence 11) [FA796C7D] (AR v2)
Copy OK
Track 12
Filename C:\Program Files (x86)\Exact Audio Copy\Flac\12. Come See About Me.wav
Peak level 97.9 %
Extraction speed 1.4 X
Track quality 99.9 %
Test CRC 880F820F
Copy CRC 880F820F
Accurately ripped (confidence 11) [C06DBEB7] (AR v2)
Copy OK
Track 13
Filename C:\Program Files (x86)\Exact Audio Copy\Flac\13. Rock-A-Bye Your Baby With A Dixie Melody.wav
Peak level 100.0 %
Extraction speed 1.8 X
Track quality 100.0 %
Test CRC F027160B
Copy CRC F027160B
Accurately ripped (confidence 11) [C640F3EE] (AR v2)
Copy OK
Track 14
Filename C:\Program Files (x86)\Exact Audio Copy\Flac\14. Queen Of The House.wav
Peak level 98.0 %
Extraction speed 1.8 X
Track quality 100.0 %
Test CRC 973BC813
Copy CRC 973BC813
Accurately ripped (confidence 10) [EFC3AB46] (AR v2)
Copy OK
Track 15
Filename C:\Program Files (x86)\Exact Audio Copy\Flac\15. Group Introduction.wav
Peak level 61.4 %
Extraction speed 1.2 X
Track quality 100.0 %
Test CRC 7661C74C
Copy CRC 7661C74C
Accurately ripped (confidence 11) [43798F1D] (AR v2)
Copy OK
Track 16
Filename C:\Program Files (x86)\Exact Audio Copy\Flac\16. Somewhere.wav
Peak level 99.0 %
Extraction speed 2.0 X
Track quality 100.0 %
Test CRC 9337A871
Copy CRC 9337A871
Accurately ripped (confidence 11) [8ECBD456] (AR v2)
Copy OK
Track 17
Filename C:\Program Files (x86)\Exact Audio Copy\Flac\17. Nothing But Heartaches.wav
Peak level 98.3 %
Extraction speed 1.9 X
Track quality 100.0 %
Test CRC 99CF8F9F
Copy CRC 99CF8F9F
Accurately ripped (confidence 11) [2BF03ABB] (AR v2)
Copy OK
Track 18
Filename C:\Program Files (x86)\Exact Audio Copy\Flac\18. Enjoy Yourself (It's Later Than You Think).wav
Peak level 96.3 %
Extraction speed 2.1 X
Track quality 100.0 %
Test CRC A06DFE90
Copy CRC A06DFE90
Accurately ripped (confidence 11) [B1ADDBC0] (AR v2)
Copy OK
Track 19
Filename C:\Program Files (x86)\Exact Audio Copy\Flac\19. Back In My Arms Again.wav
Peak level 98.8 %
Extraction speed 2.0 X
Track quality 100.0 %
Test CRC 2F1E66D4
Copy CRC 2F1E66D4
Accurately ripped (confidence 11) [B0119889] (AR v2)
Copy OK
Track 20
Filename C:\Program Files (x86)\Exact Audio Copy\Flac\20. Sam Cooke Medley.wav
Peak level 100.0 %
Extraction speed 2.4 X
Track quality 100.0 %
Test CRC EDBF4E12
Copy CRC EDBF4E12
Accurately ripped (confidence 11) [DF53BF77] (AR v2)
Copy OK
Track 21
Filename C:\Program Files (x86)\Exact Audio Copy\Flac\21. You're Nobody 'Til Somebody Loves You.wav
Peak level 100.0 %
Extraction speed 2.3 X
Track quality 100.0 %
Test CRC F361BA11
Copy CRC F361BA11
Accurately ripped (confidence 11) [24D4CFBD] (AR v2)
Copy OK
All tracks accurately ripped
No errors occurred
End of status report
---- CUETools DB Plugin V2.1.6
[CTDB TOCID: KCmf2sNY8kwkZqac8xbqwt6IohY-] found
Submit result: KCmf2sNY8kwkZqac8xbqwt6IohY- has been confirmed
Track | CTDB Status
1 | (9/9) Accurately ripped
2 | (9/9) Accurately ripped
3 | (9/9) Accurately ripped
4 | (9/9) Accurately ripped
5 | (9/9) Accurately ripped
6 | (9/9) Accurately ripped
7 | (9/9) Accurately ripped
8 | (9/9) Accurately ripped
9 | (9/9) Accurately ripped
10 | (9/9) Accurately ripped
11 | (9/9) Accurately ripped
12 | (9/9) Accurately ripped
13 | (9/9) Accurately ripped
14 | (9/9) Accurately ripped
15 | (9/9) Accurately ripped
16 | (9/9) Accurately ripped
17 | (9/9) Accurately ripped
18 | (9/9) Accurately ripped
19 | (9/9) Accurately ripped
20 | (9/9) Accurately ripped
21 | (9/9) Accurately ripped
==== Log checksum DAC3138AD39965CA0A0391D85B9C69BF665206C0CE36EE3392B8CF3522C752B2 ====
 
Содержание индексной карты (.CUE)
REM GENRE Soul
REM DATE 1965
REM DISCID 2C0E5D15
REM COMMENT "ExactAudioCopy v1.3"
PERFORMER "The Supremes"
TITLE "The Supremes At The Copa Expanded Edition CD2"
REM COMPOSER ""
FILE "01. Opening Introduction.wav" WAVE
TRACK 01 AUDIO
TITLE "Opening Introduction"
PERFORMER "The Supremes"
REM COMPOSER ""
FLAGS DCP
INDEX 01 00:00:00
FILE "02. From This Moment On.wav" WAVE
TRACK 02 AUDIO
TITLE "From This Moment On"
PERFORMER "The Supremes"
REM COMPOSER ""
FLAGS DCP
INDEX 01 00:00:00
FILE "03. Put On A Happy Face.wav" WAVE
TRACK 03 AUDIO
TITLE "Put On A Happy Face"
PERFORMER "The Supremes"
REM COMPOSER ""
FLAGS DCP
INDEX 01 00:00:00
FILE "04. Tonight , The Way You Look Tonight.wav" WAVE
TRACK 04 AUDIO
TITLE "Tonight / The Way You Look Tonight"
PERFORMER "The Supremes"
REM COMPOSER ""
FLAGS DCP
INDEX 01 00:00:00
FILE "05. Baby Love.wav" WAVE
TRACK 05 AUDIO
TITLE "Baby Love"
PERFORMER "The Supremes"
REM COMPOSER ""
FLAGS DCP
INDEX 01 00:00:00
FILE "06. Stop! In The Name Of Love.wav" WAVE
TRACK 06 AUDIO
TITLE "Stop! In The Name Of Love"
PERFORMER "The Supremes"
REM COMPOSER ""
FLAGS DCP
INDEX 01 00:00:00
FILE "07. The Boy From Ipanema.wav" WAVE
TRACK 07 AUDIO
TITLE "The Boy From Ipanema"
PERFORMER "The Supremes"
REM COMPOSER ""
FLAGS DCP
INDEX 01 00:00:00
FILE "08. Where Did Our Love Go.wav" WAVE
TRACK 08 AUDIO
TITLE "Where Did Our Love Go"
PERFORMER "The Supremes"
REM COMPOSER ""
FLAGS DCP
INDEX 01 00:00:00
FILE "09. I Am Woman.wav" WAVE
TRACK 09 AUDIO
TITLE "I Am Woman"
PERFORMER "The Supremes"
REM COMPOSER ""
FLAGS DCP
INDEX 01 00:00:00
FILE "10. Band Introduction.wav" WAVE
TRACK 10 AUDIO
TITLE "Band Introduction"
PERFORMER "The Supremes"
REM COMPOSER ""
FLAGS DCP
INDEX 01 00:00:00
FILE "11. Make Someone Happy , Time After Time.wav" WAVE
TRACK 11 AUDIO
TITLE "Make Someone Happy / Time After Time"
PERFORMER "The Supremes"
REM COMPOSER ""
FLAGS DCP
INDEX 01 00:00:00
FILE "12. Come See About Me.wav" WAVE
TRACK 12 AUDIO
TITLE "Come See About Me"
PERFORMER "The Supremes"
REM COMPOSER ""
FLAGS DCP
INDEX 01 00:00:00
FILE "13. Rock-A-Bye Your Baby With A Dixie Melody.wav" WAVE
TRACK 13 AUDIO
TITLE "Rock-A-Bye Your Baby With A Dixie Melody"
PERFORMER "The Supremes"
REM COMPOSER ""
FLAGS DCP
INDEX 01 00:00:00
FILE "14. Queen Of The House.wav" WAVE
TRACK 14 AUDIO
TITLE "Queen Of The House"
PERFORMER "The Supremes"
REM COMPOSER ""
FLAGS DCP
INDEX 01 00:00:00
FILE "15. Group Introduction.wav" WAVE
TRACK 15 AUDIO
TITLE "Group Introduction"
PERFORMER "The Supremes"
REM COMPOSER ""
FLAGS DCP
INDEX 01 00:00:00
FILE "16. Somewhere.wav" WAVE
TRACK 16 AUDIO
TITLE "Somewhere"
PERFORMER "The Supremes"
REM COMPOSER ""
FLAGS DCP
INDEX 01 00:00:00
FILE "17. Nothing But Heartaches.wav" WAVE
TRACK 17 AUDIO
TITLE "Nothing But Heartaches"
PERFORMER "The Supremes"
REM COMPOSER ""
FLAGS DCP
INDEX 01 00:00:00
FILE "18. Enjoy Yourself (It's Later Than You Think).wav" WAVE
TRACK 18 AUDIO
TITLE "Enjoy Yourself (It's Later Than You Think)"
PERFORMER "The Supremes"
REM COMPOSER ""
FLAGS DCP
INDEX 01 00:00:00
FILE "19. Back In My Arms Again.wav" WAVE
TRACK 19 AUDIO
TITLE "Back In My Arms Again"
PERFORMER "The Supremes"
REM COMPOSER ""
FLAGS DCP
INDEX 01 00:00:00
FILE "20. Sam Cooke Medley.wav" WAVE
TRACK 20 AUDIO
TITLE "Sam Cooke Medley"
PERFORMER "The Supremes"
REM COMPOSER ""
FLAGS DCP
INDEX 01 00:00:00
FILE "21. You're Nobody 'Til Somebody Loves You.wav" WAVE
TRACK 21 AUDIO
TITLE "You're Nobody 'Til Somebody Loves You"
PERFORMER "The Supremes"
REM COMPOSER ""
FLAGS DCP
INDEX 01 00:00:00
Приватный:
Нет (DHT включён)
Размер:
838.71 Мб (879,446,617 байт) » файлов: 75
Участники:
0 раздают, 0 качают (0 участников всего)
Внешние участники:
1 раздают, 0 качают (1 участников всего) [ Обновить ]
Есть вопросы - пишите личное сообщение пользователю M0p94ok.
13:17
61
Нет комментариев. Ваш будет первым!