Поиск

(Soul-Jazz, Hard Bop) [CD] The Jazz Crusaders - Complete Live At The Lighthouse '62 (2014 Remaster), FLAC (tracks+.cue), lossless

(Soul-Jazz, Hard Bop) [CD] The Jazz Crusaders - Complete Live At The Lighthouse '62 (2014 Remaster), FLAC (tracks+.cue), lossless
Треклист:


The Jazz Crusaders - Complete Live At The Lighthouse '62 (2014 Remaster)
Жанр: Soul-Jazz, Hard Bop
Носитель: CD (live, archival)
Страна-производитель диска (релиза): Spain
Год издания оригинала: 1962
Год переиздания: 2014
Издатель (лейбл): American Jazz Classics
Номер по каталогу: 8 436542 016742
Страна исполнителя (группы): USA
Дата / место записи: Lighthouse, Hermona Beach, Carlifornia, August 5, 1962. Bonus tracks - Los Angeles, September 24,1962
Аудио кодек: FLAC (*.flac)
Тип рипа: (tracks + .cue)
Битрейт аудио: lossless
Наличие сканов в содержимом раздачи: full scans, jpeg png, 300 dpi
Продолжительность: 1:14:55
Источник (релизер): embeejay (another tracker)
Трэклист:
1. Intrtroduction By Ken Jones (00:17)
2. Congolese Sermon (07:10)
3. Cathy's Dilemma (07:15)
4. Blues For Ramona (07:25)
5. Weather Beat (07:08)
6. Scandalizing (07:17)
7. Appointment In Ghana (06:59)
8. Penny Blue (07:31)
9. Boopie (09:28)
Bonus tracks
10. The Thing (04:45)
11. White Cobra (04:50)
12. New Time Shuffle (04:45)DiscogsЭта раздача может быть поглощена собственным рипом Lossless Group. Мы предпочитаем оригинальные рипы.
 
Лог создания рипа (23. September 2015)
Exact Audio Copy V1.0 beta 6 from 9. April 2015
EAC extraction logfile from 23. September 2015, 21:21
The Jazz Crusaders / Complete Live At The Lighthouse '62 (Remaster)
Used drive : Optiarc DVD RW AD-7260S Adapter: 1 ID: 0
Read mode : Secure
Utilize accurate stream : Yes
Defeat audio cache : Yes
Make use of C2 pointers : No
Read offset correction : 48
Overread into Lead-In and Lead-Out : No
Fill up missing offset samples with silence : Yes
Delete leading and trailing silent blocks : No
Null samples used in CRC calculations : Yes
Used interface : Native Win32 interface for Win NT & 2000
Gap handling : Appended to previous track
Used output format : User Defined Encoder
Selected bitrate : 1024 kBit/s
Quality : High
Add ID3 tag : No
Command line compressor : C:\Program Files (x86)\Exact Audio Copy\FLAC\FLAC.EXE
Additional command line options : -8 -V -T "ARTIST=%artist%" -T "TITLE=%title%" -T "ALBUM=%albumtitle%" -T "DATE=%year%" -T "TRACKNUMBER=%tracknr%" -T "GENRE=%genre%" -T "PERFORMER=%albuminterpret%" -T "COMPOSER=%composer%" %haslyrics%--tag-from-file=LYRICS="%lyricsfile%"%haslyrics% -T "ALBUMARTIST=%albumartist%" -T "DISCNUMBER=%cdnumber%" -T "TOTALDISCS=%totalcds%" -T "TOTALTRACKS=%numtracks%" -T "COMMENT=%comment%" %source% -o %dest%
TOC of the extracted CD
Track | Start | Length | Start sector | End sector
---------------------------------------------------------
1 | 0:00.00 | 0:16.52 | 0 | 1251
2 | 0:16.52 | 7:10.12 | 1252 | 33513
3 | 7:26.64 | 7:15.62 | 33514 | 66200
4 | 14:42.51 | 7:25.50 | 66201 | 99625
5 | 22:08.26 | 7:08.14 | 99626 | 131739
6 | 29:16.40 | 7:17.28 | 131740 | 164542
7 | 36:33.68 | 6:59.40 | 164543 | 196007
8 | 43:33.33 | 7:31.59 | 196008 | 229891
9 | 51:05.17 | 9:28.57 | 229892 | 272548
10 | 60:33.74 | 4:45.41 | 272549 | 293964
11 | 65:19.40 | 4:50.10 | 293965 | 315724
12 | 70:09.50 | 4:45.36 | 315725 | 337135
Track 1
Filename C:\!EAC Rips\The Jazz Crusaders - Complete Live At The Lighthouse '62 (2014 Remaster) [FLAC]\01 - Introduction.wav
Pre-gap length 0:00:02.00
Peak level 59.1 %
Extraction speed 0.8 X
Track quality 100.0 %
Test CRC 33A37A4D
Copy CRC 33A37A4D
Cannot be verified as accurate (confidence 2) [9103DD07], AccurateRip returned [3248CFA0] (AR v2)
Copy OK
Track 2
Filename C:\!EAC Rips\The Jazz Crusaders - Complete Live At The Lighthouse '62 (2014 Remaster) [FLAC]\02 - Congolese Sermon.wav
Peak level 98.9 %
Extraction speed 2.7 X
Track quality 100.0 %
Test CRC E948A62A
Copy CRC E948A62A
Cannot be verified as accurate (confidence 2) [7F95A128], AccurateRip returned [BCFC2F12] (AR v2)
Copy OK
Track 3
Filename C:\!EAC Rips\The Jazz Crusaders - Complete Live At The Lighthouse '62 (2014 Remaster) [FLAC]\03 - Cathy's Dilemma.wav
Peak level 98.9 %
Extraction speed 3.1 X
Track quality 100.0 %
Test CRC 46B07360
Copy CRC 46B07360
Cannot be verified as accurate (confidence 2) [5709D793], AccurateRip returned [56209DF6] (AR v2)
Copy OK
Track 4
Filename C:\!EAC Rips\The Jazz Crusaders - Complete Live At The Lighthouse '62 (2014 Remaster) [FLAC]\04 - Blues for Ramona.wav
Peak level 98.8 %
Extraction speed 3.5 X
Track quality 100.0 %
Test CRC 23AC9589
Copy CRC 23AC9589
Cannot be verified as accurate (confidence 2) [4DE8E7FA], AccurateRip returned [B2FAF392] (AR v2)
Copy OK
Track 5
Filename C:\!EAC Rips\The Jazz Crusaders - Complete Live At The Lighthouse '62 (2014 Remaster) [FLAC]\05 - Weather Beat.wav
Peak level 98.9 %
Extraction speed 3.8 X
Track quality 100.0 %
Test CRC A7157F93
Copy CRC A7157F93
Cannot be verified as accurate (confidence 2) [8583D81C], AccurateRip returned [B96A3CFA] (AR v2)
Copy OK
Track 6
Filename C:\!EAC Rips\The Jazz Crusaders - Complete Live At The Lighthouse '62 (2014 Remaster) [FLAC]\06 - Scandalizing.wav
Peak level 98.9 %
Extraction speed 4.2 X
Track quality 100.0 %
Test CRC 06ACEE9A
Copy CRC 06ACEE9A
Cannot be verified as accurate (confidence 2) [E4322FE1], AccurateRip returned [7461A8F9] (AR v2)
Copy OK
Track 7
Filename C:\!EAC Rips\The Jazz Crusaders - Complete Live At The Lighthouse '62 (2014 Remaster) [FLAC]\07 - Appointment in Ghana.wav
Peak level 98.8 %
Extraction speed 4.4 X
Track quality 100.0 %
Test CRC 1E4D44A4
Copy CRC 1E4D44A4
Cannot be verified as accurate (confidence 2) [EEA9D144], AccurateRip returned [618995CA] (AR v2)
Copy OK
Track 8
Filename C:\!EAC Rips\The Jazz Crusaders - Complete Live At The Lighthouse '62 (2014 Remaster) [FLAC]\08 - Penny Blue.wav
Peak level 98.8 %
Extraction speed 4.7 X
Track quality 100.0 %
Test CRC 7704F10D
Copy CRC 7704F10D
Cannot be verified as accurate (confidence 2) [99EBD6B2], AccurateRip returned [4BCC934A] (AR v2)
Copy OK
Track 9
Filename C:\!EAC Rips\The Jazz Crusaders - Complete Live At The Lighthouse '62 (2014 Remaster) [FLAC]\09 - Boopie.wav
Peak level 98.9 %
Extraction speed 5.1 X
Track quality 100.0 %
Test CRC 30C4EDEF
Copy CRC 30C4EDEF
Cannot be verified as accurate (confidence 2) [F0B682EA], AccurateRip returned [147D98C6] (AR v2)
Copy OK
Track 10
Filename C:\!EAC Rips\The Jazz Crusaders - Complete Live At The Lighthouse '62 (2014 Remaster) [FLAC]\10 - The Thing (Bonus Track).wav
Peak level 98.5 %
Extraction speed 5.0 X
Track quality 100.0 %
Test CRC B267D7B4
Copy CRC B267D7B4
Cannot be verified as accurate (confidence 2) [ADBEA4FA], AccurateRip returned [EF48E794] (AR v2)
Copy OK
Track 11
Filename C:\!EAC Rips\The Jazz Crusaders - Complete Live At The Lighthouse '62 (2014 Remaster) [FLAC]\11 - White Cobra (Bonus Track).wav
Peak level 98.9 %
Extraction speed 4.7 X
Track quality 99.9 %
Test CRC ECDA52F6
Copy CRC ECDA52F6
Cannot be verified as accurate (confidence 2) [305ABC4B], AccurateRip returned [F909F747] (AR v2)
Copy OK
Track 12
Filename C:\!EAC Rips\The Jazz Crusaders - Complete Live At The Lighthouse '62 (2014 Remaster) [FLAC]\12 - New Time Shuffle (Bonus Track).wav
Peak level 98.3 %
Extraction speed 5.4 X
Track quality 100.0 %
Test CRC 4311848B
Copy CRC 4311848B
Cannot be verified as accurate (confidence 2) [D9CC7CA7], AccurateRip returned [DC1BD29F] (AR v2)
Copy OK
No tracks could be verified as accurate
You may have a different pressing from the one(s) in the database
No errors occurred
End of status report
---- CUETools DB Plugin V2.1.6
[CTDB TOCID: zaVsL89vsrsNvZIGkO5gQNxip_o-] found
Submit result: zaVsL89vsrsNvZIGkO5gQNxip_o- has been confirmed
Track | CTDB Status
1 | (1/1) Accurately ripped
2 | (1/1) Accurately ripped
3 | (1/1) Accurately ripped
4 | (1/1) Accurately ripped
5 | (1/1) Accurately ripped
6 | (1/1) Accurately ripped
7 | (1/1) Accurately ripped
8 | (1/1) Accurately ripped
9 | (1/1) Accurately ripped
10 | (1/1) Accurately ripped
11 | (1/1) Accurately ripped
12 | (1/1) Accurately ripped
==== Log checksum 351A607AB213E522A41B3ECED4A3CB97B720F74706FB6DD88237228EC31F6920 ====
 
Содержание индексной карты (.CUE):
REM GENRE Jazz
REM DATE 2014
REM DISCID A2118F0C
REM COMMENT "ExactAudioCopy v1.0b6"
PERFORMER "The Jazz Crusaders"
TITLE "Complete Live At The Lighthouse '62 (Remaster)"
FILE "01 - Introduction.wav" WAVE
TRACK 01 AUDIO
TITLE "Introduction"
PERFORMER "The Jazz Crusaders"
INDEX 01 00:00:00
FILE "02 - Congolese Sermon.wav" WAVE
TRACK 02 AUDIO
TITLE "Congolese Sermon"
PERFORMER "The Jazz Crusaders"
INDEX 01 00:00:00
FILE "03 - Cathy's Dilemma.wav" WAVE
TRACK 03 AUDIO
TITLE "Cathy's Dilemma"
PERFORMER "The Jazz Crusaders"
INDEX 01 00:00:00
FILE "04 - Blues for Ramona.wav" WAVE
TRACK 04 AUDIO
TITLE "Blues for Ramona"
PERFORMER "The Jazz Crusaders"
INDEX 01 00:00:00
FILE "05 - Weather Beat.wav" WAVE
TRACK 05 AUDIO
TITLE "Weather Beat"
PERFORMER "The Jazz Crusaders"
INDEX 01 00:00:00
FILE "06 - Scandalizing.wav" WAVE
TRACK 06 AUDIO
TITLE "Scandalizing"
PERFORMER "The Jazz Crusaders"
INDEX 01 00:00:00
FILE "07 - Appointment in Ghana.wav" WAVE
TRACK 07 AUDIO
TITLE "Appointment in Ghana"
PERFORMER "The Jazz Crusaders"
INDEX 01 00:00:00
FILE "08 - Penny Blue.wav" WAVE
TRACK 08 AUDIO
TITLE "Penny Blue"
PERFORMER "The Jazz Crusaders"
INDEX 01 00:00:00
FILE "09 - Boopie.wav" WAVE
TRACK 09 AUDIO
TITLE "Boopie"
PERFORMER "The Jazz Crusaders"
INDEX 01 00:00:00
FILE "10 - The Thing (Bonus Track).wav" WAVE
TRACK 10 AUDIO
TITLE "The Thing (Bonus Track)"
PERFORMER "The Jazz Crusaders"
INDEX 01 00:00:00
FILE "11 - White Cobra (Bonus Track).wav" WAVE
TRACK 11 AUDIO
TITLE "White Cobra (Bonus Track)"
PERFORMER "The Jazz Crusaders"
INDEX 01 00:00:00
FILE "12 - New Time Shuffle (Bonus Track).wav" WAVE
TRACK 12 AUDIO
TITLE "New Time Shuffle (Bonus Track)"
PERFORMER "The Jazz Crusaders"
INDEX 01 00:00:00
 
Лог проверки качества
-----------------------
DON'T MODIFY THIS FILE
-----------------------
PERFORMER: auCDtect Task Manager, ver. 1.6.0 RC1 build 1.6.0.1
Copyright (c) 2008-2010 y-soft. All rights reserved
http://y-soft.org
ANALYZER: auCDtect: CD records authenticity detector, version 0.8.2
Copyright (c) 2004 Oleg Berngardt. All rights reserved.
Copyright (c) 2004 Alexander Djourik. All rights reserved.
FILE: 12 - New Time Shuffle (Bonus Track).flac
Size: 34701359 Hash: 7DD909425843FE7477D027BCB3B7AEB3 Accuracy: -m0
Conclusion: CDDA 100%
Signature: B29FF8BB2A281C1CBEB5335B1F8E03581DB972B2
FILE: 11 - White Cobra (Bonus Track).flac
Size: 34410262 Hash: D74E116741B15AB14963490E8B4D8261 Accuracy: -m0
Conclusion: CDDA 100%
Signature: 7EBC20D4799FC885CB35E4726D3138595BCA5A57
FILE: 10 - The Thing (Bonus Track).flac
Size: 34410015 Hash: 154BA93B2CE2FB3136CE3EED27645B4D Accuracy: -m0
Conclusion: CDDA 100%
Signature: FA42357D372C1EE8D4F184AECAD6916B4365533E
FILE: 09 - Boopie.flac
Size: 65084495 Hash: 9DD1DE77AE7537A1BA882A26DEA9B9B4 Accuracy: -m0
Conclusion: CDDA 94%
Signature: AC1DCF97183FB42ED89B4C80DEC05E125074F068
FILE: 08 - Penny Blue.flac
Size: 51686137 Hash: 279C88501B402851361FBEB1065A23FC Accuracy: -m0
Conclusion: CDDA 87%
Signature: 90155BC11EA8C6D6525C7B91CC9DCF15755DAC3D
FILE: 07 - Appointment in Ghana.flac
Size: 49009697 Hash: 5B11EF172E064507BADA08A7118965F9 Accuracy: -m0
Conclusion: CDDA 42%
Signature: BF5059BA2859D8BB09A99E7945BC78340D85E7D4
FILE: 06 - Scandalizing.flac
Size: 47755472 Hash: 48B27697CBFABF687D1474D00DF2F74F Accuracy: -m0
Conclusion: CDDA 49%
Signature: 0FA6C85919411C70558476791ADF00958CC73D7B
FILE: 05 - Weather Beat.flac
Size: 47736827 Hash: B57E96233B4496229D4F581337BBB124 Accuracy: -m0
Conclusion: MPEG 89%
Signature: 6CFE38C4CD15C4315210331E09317224415D8208
FILE: 04 - Blues for Ramona.flac
Size: 50584524 Hash: 3A866ED62F52B9389B2FB7BE0F4DDB25 Accuracy: -m0
Conclusion: MPEG 93%
Signature: E86E198179C8AA7EBD8507B4289A06DE0857B351
FILE: 03 - Cathy's Dilemma.flac
Size: 47006656 Hash: E0A4E0680E210F82F78500A3E77A4A4A Accuracy: -m0
Conclusion: MPEG 80%
Signature: 25CAF7C6722ED671C6DA117B8926DDDDF36A5CFC
FILE: 02 - Congolese Sermon.flac
Size: 48984940 Hash: 1CF1B1FF7E408253FF1AAE5FF79CE9DB Accuracy: -m0
Conclusion: CDDA 49%
Signature: C23D7E17DBEBC40FA4162216A8BB868938950767
FILE: 01 - Introduction.flac
Size: 1461310 Hash: 03FBE8C4F45955E2B7E36590FAF793B4 Accuracy: -m0
Conclusion: CDDA 85%
Signature: 8283F23AA62B3FB410DF0E9BB96C0893E7BC13E4
 
Спектрограммы сомнительных треков

 
Back
 
Состав
Bass – Victor Gaskin
Drums – "Stix" Hooper
Piano – Joe Sample
Producer – Richard Bock
Saxophone – Wilton Felder
Trombone – Wayne Henderson
Bonus tracks - same personnel

Приватный:
Нет (DHT включён)
Размер:
490.06 Мб (513,862,491 байт) » файлов: 23
Участники:
0 раздают, 1 качают (1 участников всего)
Внешние участники:
3 раздают, 1 качают (4 участников всего) [ Обновить ]
Скорость:
931.02 Кб/c 0/c
Есть вопросы - пишите личное сообщение пользователю M0p94ok.
13:18
86
Нет комментариев. Ваш будет первым!