Поиск

(Soul, R&B) [CD] Sarah Dash - Close Enough (1981) - 2016 {SICP-4933}, FLAC (tracks+.cue), lossless

(Soul, R&B) [CD] Sarah Dash - Close Enough (1981) - 2016 {SICP-4933}, FLAC (tracks+.cue), lossless
Треклист:
Sarah Dash - Close Enough (1981) Жанр: Soul, R&B
Носитель: CD
Страна-производитель диска: Japan
Год издания: 2016
Издатель (лейбл): Sony Music
Номер по каталогу: SICP-4933
Аудиокодек: FLAC (*.flac)
Тип рипа: tracks+.cue
Битрейт аудио: lossless
Продолжительность: 37:06
Rip by JET 1
Наличие сканов в содержимом раздачи: да
Треклист:
01. Only You Can Feel The Need (3:45)
02. Close Enough (4:50)
03. Leaving Again (3:38)
04. P.S. I Love You (3:21)
05. Paradise (4:26)
06. Somebodys Angel (4:12)
07. City Boy (3:36)
08. My Friend (3:39)
09. God Bless You (5:39)
 
Лог создания рипа
Exact Audio Copy V1.3 from 2. September 2016
EAC extraction logfile from 17. February 2017, 22:47
Sarah Dash / Close Enough
Used drive : GENERIC CDRCB05 Adapter: 1 ID: 1
Read mode : Secure
Utilize accurate stream : Yes
Defeat audio cache : Yes
Make use of C2 pointers : No
Read offset correction : 102
Overread into Lead-In and Lead-Out : No
Fill up missing offset samples with silence : Yes
Delete leading and trailing silent blocks : No
Null samples used in CRC calculations : Yes
Used interface : Native Win32 interface for Win NT & 2000
Gap handling : Appended to previous track
Used output format : User Defined Encoder
Selected bitrate : 768 kBit/s
Quality : High
Add ID3 tag : No
Command line compressor : C:\Program Files (x86)\Exact Audio Copy\FLAC\FLAC.EXE
Additional command line options : -6 -V -T "ARTIST=%artist%" -T "TITLE=%title%" -T "ALBUM=%albumtitle%" -T "DATE=%year%" -T "TRACKNUMBER=%tracknr%" -T "GENRE=%genre%" -T "COMMENT=%comment%" -T "BAND=%albuminterpret%" -T "ALBUMARTIST=%albuminterpret%" -T "COMPOSER=%composer%" %haslyrics%--tag-from-file=LYRICS="%lyricsfile%"%haslyrics% -T "DISCNUMBER=%cdnumber%" -T "TOTALDISCS=%totalcds%" -T "TOTALTRACKS=%numtracks%" %hascover%--picture="%coverfile%"%hascover% %source% -o %dest%
TOC of the extracted CD
Track | Start | Length | Start sector | End sector
---------------------------------------------------------
1 | 0:00.00 | 3:45.01 | 0 | 16875
2 | 3:45.01 | 4:49.40 | 16876 | 38590
3 | 8:34.41 | 3:38.24 | 38591 | 54964
4 | 12:12.65 | 3:21.36 | 54965 | 70075
5 | 15:34.26 | 4:26.05 | 70076 | 90030
6 | 20:00.31 | 4:11.59 | 90031 | 108914
7 | 24:12.15 | 3:36.11 | 108915 | 125125
8 | 27:48.26 | 3:38.60 | 125126 | 141535
9 | 31:27.11 | 5:38.52 | 141536 | 166937
Track 1
Filename K:\MUSIC\Sarah Dash ‎- Close Enough (1981) [2016]\01 Only You Can Feel The Need.wav
Pre-gap length 0:00:02.00
Peak level 100.0 %
Extraction speed 1.4 X
Track quality 100.0 %
Test CRC DA15E884
Copy CRC DA15E884
Accurately ripped (confidence 1) [F73C4F7A] (AR v2)
Copy OK
Track 2
Filename K:\MUSIC\Sarah Dash ‎- Close Enough (1981) [2016]\02 Close Enough.wav
Peak level 100.0 %
Extraction speed 1.6 X
Track quality 100.0 %
Test CRC EB9E430D
Copy CRC EB9E430D
Accurately ripped (confidence 1) [2256F620] (AR v2)
Copy OK
Track 3
Filename K:\MUSIC\Sarah Dash ‎- Close Enough (1981) [2016]\03 Leaving Again.wav
Peak level 99.9 %
Extraction speed 1.7 X
Track quality 100.0 %
Test CRC 17533120
Copy CRC 17533120
Accurately ripped (confidence 1) [C9D68B29] (AR v2)
Copy OK
Track 4
Filename K:\MUSIC\Sarah Dash ‎- Close Enough (1981) [2016]\04 P.S. I Love You.wav
Peak level 99.9 %
Extraction speed 1.6 X
Track quality 99.9 %
Test CRC 1BC8A9B2
Copy CRC 1BC8A9B2
Accurately ripped (confidence 1) [C2ACFD30] (AR v2)
Copy OK
Track 5
Filename K:\MUSIC\Sarah Dash ‎- Close Enough (1981) [2016]\05 Paradise.wav
Peak level 100.0 %
Extraction speed 2.0 X
Track quality 100.0 %
Test CRC B71BC81B
Copy CRC B71BC81B
Accurately ripped (confidence 1) [406142D3] (AR v2)
Copy OK
Track 6
Filename K:\MUSIC\Sarah Dash ‎- Close Enough (1981) [2016]\06 Somebodys Angel.wav
Peak level 100.0 %
Extraction speed 2.1 X
Track quality 100.0 %
Test CRC C10A1309
Copy CRC C10A1309
Accurately ripped (confidence 1) [BD20A1EC] (AR v2)
Copy OK
Track 7
Filename K:\MUSIC\Sarah Dash ‎- Close Enough (1981) [2016]\07 City Boy.wav
Peak level 100.0 %
Extraction speed 1.9 X
Track quality 99.9 %
Test CRC FCC633D5
Copy CRC FCC633D5
Accurately ripped (confidence 1) [2EC6AF2A] (AR v2)
Copy OK
Track 8
Filename K:\MUSIC\Sarah Dash ‎- Close Enough (1981) [2016]\08 My Friend.wav
Peak level 100.0 %
Extraction speed 2.0 X
Track quality 99.9 %
Test CRC 3482C866
Copy CRC 3482C866
Accurately ripped (confidence 1) [EE428C88] (AR v2)
Copy OK
Track 9
Filename K:\MUSIC\Sarah Dash ‎- Close Enough (1981) [2016]\09 God Bless You.wav
Peak level 100.0 %
Extraction speed 2.5 X
Track quality 100.0 %
Test CRC E12D798D
Copy CRC E12D798D
Accurately ripped (confidence 1) [16635530] (AR v2)
Copy OK
All tracks accurately ripped
No errors occurred
End of status report
---- CUETools DB Plugin V2.1.6
[CTDB TOCID: u1Q03sB8D7KA_rI_bemuUV3J0MU-] found
Submit result: u1Q03sB8D7KA_rI_bemuUV3J0MU- has been confirmed
Track | CTDB Status
1 | (6/6) Accurately ripped
2 | (6/6) Accurately ripped
3 | (6/6) Accurately ripped
4 | (6/6) Accurately ripped
5 | (6/6) Accurately ripped
6 | (6/6) Accurately ripped
7 | (6/6) Accurately ripped
8 | (6/6) Accurately ripped
9 | (6/6) Accurately ripped
==== Log checksum F8B5EE8BB3E23261FEE343423562B8815EAE2F77C34B89EDEE5802446985D30A ====
 
Содержание индексной карты (.CUE)
REM GENRE Soul
REM DATE 1981
REM DISCID 7408B109
REM COMMENT "ExactAudioCopy v1.3"
PERFORMER "Sarah Dash"
TITLE "Close Enough"
FILE "01 Only You Can Feel The Need.wav" WAVE
TRACK 01 AUDIO
TITLE "Only You Can Feel The Need"
PERFORMER "Sarah Dash"
INDEX 01 00:00:00
FILE "02 Close Enough.wav" WAVE
TRACK 02 AUDIO
TITLE "Close Enough"
PERFORMER "Sarah Dash"
INDEX 01 00:00:00
FILE "03 Leaving Again.wav" WAVE
TRACK 03 AUDIO
TITLE "Leaving Again"
PERFORMER "Sarah Dash"
INDEX 01 00:00:00
FILE "04 P.S. I Love You.wav" WAVE
TRACK 04 AUDIO
TITLE "P.S. I Love You"
PERFORMER "Sarah Dash"
INDEX 01 00:00:00
FILE "05 Paradise.wav" WAVE
TRACK 05 AUDIO
TITLE "Paradise"
PERFORMER "Sarah Dash"
INDEX 01 00:00:00
FILE "06 Somebodys Angel.wav" WAVE
TRACK 06 AUDIO
TITLE "Somebodys Angel"
PERFORMER "Sarah Dash"
INDEX 01 00:00:00
FILE "07 City Boy.wav" WAVE
TRACK 07 AUDIO
TITLE "City Boy"
PERFORMER "Sarah Dash"
INDEX 01 00:00:00
FILE "08 My Friend.wav" WAVE
TRACK 08 AUDIO
TITLE "My Friend"
PERFORMER "Sarah Dash"
INDEX 01 00:00:00
FILE "09 God Bless You.wav" WAVE
TRACK 09 AUDIO
TITLE "God Bless You"
PERFORMER "Sarah Dash"
INDEX 01 00:00:00
Приватный:
Нет (DHT включён)
Размер:
313.55 Мб (328,784,388 байт) » файлов: 23
Участники:
0 раздают, 0 качают (0 участников всего)
Внешние участники:
2 раздают, 1 качают (3 участников всего) [ Обновить ]
For power users only: no seeders - write to support@pro-jazz.com. Для power user: нет сидеров - пишите на support@pro-jazz.com.
13:19
90
Нет комментариев. Ваш будет первым!