Поиск

(Soul, R&B) [CD] Roger Hatcher - R & Better (1977) - 2015, FLAC (tracks+.cue), lossless

(Soul, R&B) [CD] Roger Hatcher - R & Better (1977) - 2015, FLAC (tracks+.cue), lossless
Треклист:
Roger Hatcher - R & Better (1977) Жанр: Soul, R&B
Носитель: CD
Страна-производитель диска: Japan
Год издания: 2015
Издатель (лейбл): KTI Music
Номер по каталогу: KTIC-1006
Аудиокодек: FLAC (*.flac)
Тип рипа: tracks+.cue
Битрейт аудио: lossless
Продолжительность: 29:51
Rip by JET 1
Наличие сканов в содержимом раздачи: да
Треклист:
01. Sleepin' On The Job (2:29)
02. You Must Have Come From Heaven (3:09)
03. Let Your Love Shine On Me (2:51)
04. Daylight Savings Time (3:28)
05. I'm A Junkie For Your Love (3:34)
06. Your Love Is A Masterpiece (3:02)
07. All My Love (2:32)
08. Kung Fu And You Too (2:11)
09. Struttin' (2:40)
10. My Thang (3:56)
 
 
Лог создания рипа
Exact Audio Copy V1.3 from 2. September 2016
EAC extraction logfile from 22. February 2017, 23:40
Roger Hatcher / R & Better
Used drive : GENERIC CDRCB05 Adapter: 1 ID: 1
Read mode : Secure
Utilize accurate stream : Yes
Defeat audio cache : Yes
Make use of C2 pointers : No
Read offset correction : 102
Overread into Lead-In and Lead-Out : No
Fill up missing offset samples with silence : Yes
Delete leading and trailing silent blocks : No
Null samples used in CRC calculations : Yes
Used interface : Native Win32 interface for Win NT & 2000
Gap handling : Appended to previous track
Used output format : User Defined Encoder
Selected bitrate : 768 kBit/s
Quality : High
Add ID3 tag : No
Command line compressor : C:\Program Files (x86)\Exact Audio Copy\FLAC\FLAC.EXE
Additional command line options : -6 -V -T "ARTIST=%artist%" -T "TITLE=%title%" -T "ALBUM=%albumtitle%" -T "DATE=%year%" -T "TRACKNUMBER=%tracknr%" -T "GENRE=%genre%" -T "COMMENT=%comment%" -T "BAND=%albuminterpret%" -T "ALBUMARTIST=%albuminterpret%" -T "COMPOSER=%composer%" %haslyrics%--tag-from-file=LYRICS="%lyricsfile%"%haslyrics% -T "DISCNUMBER=%cdnumber%" -T "TOTALDISCS=%totalcds%" -T "TOTALTRACKS=%numtracks%" %hascover%--picture="%coverfile%"%hascover% %source% -o %dest%
TOC of the extracted CD
Track | Start | Length | Start sector | End sector
---------------------------------------------------------
1 | 0:00.00 | 2:28.70 | 0 | 11169
2 | 2:28.70 | 3:08.64 | 11170 | 25333
3 | 5:37.59 | 2:50.52 | 25334 | 38135
4 | 8:28.36 | 3:27.63 | 38136 | 53723
5 | 11:56.24 | 3:33.50 | 53724 | 69748
6 | 15:29.74 | 3:01.73 | 69749 | 83396
7 | 18:31.72 | 2:32.31 | 83397 | 94827
8 | 21:04.28 | 2:11.05 | 94828 | 104657
9 | 23:15.33 | 2:39.65 | 104658 | 116647
10 | 25:55.23 | 3:55.72 | 116648 | 134344
Track 1
Filename K:\MUSIC\Roger Hatcher ‎- R & Better (1977) [2015 Japan]\01 Sleepin' On The Job.wav
Pre-gap length 0:00:02.00
Peak level 89.1 %
Extraction speed 2.1 X
Track quality 100.0 %
Test CRC 566AD80F
Copy CRC 566AD80F
Accurately ripped (confidence 1) [F1DF648F] (AR v2)
Copy OK
Track 2
Filename K:\MUSIC\Roger Hatcher ‎- R & Better (1977) [2015 Japan]\02 You Must Have Come From Heaven.wav
Peak level 100.0 %
Extraction speed 2.4 X
Track quality 100.0 %
Test CRC 33A8B255
Copy CRC 33A8B255
Accurately ripped (confidence 1) [BCDFFA51] (AR v2)
Copy OK
Track 3
Filename K:\MUSIC\Roger Hatcher ‎- R & Better (1977) [2015 Japan]\03 Let Your Love Shine On Me.wav
Peak level 89.1 %
Extraction speed 2.6 X
Track quality 100.0 %
Test CRC 5AB02375
Copy CRC 5AB02375
Accurately ripped (confidence 1) [553BCBE3] (AR v2)
Copy OK
Track 4
Filename K:\MUSIC\Roger Hatcher ‎- R & Better (1977) [2015 Japan]\04 Daylight Savings Time.wav
Peak level 99.9 %
Extraction speed 2.4 X
Track quality 99.9 %
Test CRC 651C8BE4
Copy CRC 651C8BE4
Accurately ripped (confidence 1) [EB0EC781] (AR v2)
Copy OK
Track 5
Filename K:\MUSIC\Roger Hatcher ‎- R & Better (1977) [2015 Japan]\05 I'm A Junkie For Your Love.wav
Peak level 100.0 %
Extraction speed 3.0 X
Track quality 100.0 %
Test CRC D4F24551
Copy CRC D4F24551
Accurately ripped (confidence 1) [E83264E6] (AR v2)
Copy OK
Track 6
Filename K:\MUSIC\Roger Hatcher ‎- R & Better (1977) [2015 Japan]\06 Your Love Is A Masterpiece.wav
Peak level 100.0 %
Extraction speed 3.1 X
Track quality 100.0 %
Test CRC C900DBFA
Copy CRC C900DBFA
Accurately ripped (confidence 1) [74F9699F] (AR v2)
Copy OK
Track 7
Filename K:\MUSIC\Roger Hatcher ‎- R & Better (1977) [2015 Japan]\07 All My Love.wav
Peak level 99.9 %
Extraction speed 2.6 X
Track quality 99.9 %
Test CRC 482A7DA1
Copy CRC 482A7DA1
Accurately ripped (confidence 1) [AB553416] (AR v2)
Copy OK
Track 8
Filename K:\MUSIC\Roger Hatcher ‎- R & Better (1977) [2015 Japan]\08 Kung Fu And You Too.wav
Peak level 99.9 %
Extraction speed 3.0 X
Track quality 100.0 %
Test CRC 451F02DE
Copy CRC 451F02DE
Accurately ripped (confidence 1) [4252D034] (AR v2)
Copy OK
Track 9
Filename K:\MUSIC\Roger Hatcher ‎- R & Better (1977) [2015 Japan]\09 Struttin'.wav
Peak level 100.0 %
Extraction speed 3.3 X
Track quality 100.0 %
Test CRC AE390AEC
Copy CRC AE390AEC
Accurately ripped (confidence 1) [18A57997] (AR v2)
Copy OK
Track 10
Filename K:\MUSIC\Roger Hatcher ‎- R & Better (1977) [2015 Japan]\10 My Thang.wav
Peak level 100.0 %
Extraction speed 3.6 X
Track quality 100.0 %
Test CRC FA6ECBC9
Copy CRC FA6ECBC9
Accurately ripped (confidence 1) [39C862E0] (AR v2)
Copy OK
All tracks accurately ripped
No errors occurred
End of status report
---- CUETools DB Plugin V2.1.6
[CTDB TOCID: thHy3Jpin6iPPIQHyBZAwUbNI1E-] found
Submit result: thHy3Jpin6iPPIQHyBZAwUbNI1E- has been confirmed
Track | CTDB Status
1 | (2/2) Accurately ripped
2 | (2/2) Accurately ripped
3 | (2/2) Accurately ripped
4 | (2/2) Accurately ripped
5 | (2/2) Accurately ripped
6 | (2/2) Accurately ripped
7 | (2/2) Accurately ripped
8 | (2/2) Accurately ripped
9 | (2/2) Accurately ripped
10 | (2/2) Accurately ripped
==== Log checksum F5E5CBC9516313E94C369592499C77AC12D0D6BBC0175AC3B98225E0507942FC ====
 
Содержание индексной карты (.CUE)
REM GENRE Soul
REM DATE 1977
REM DISCID 7506FF0A
REM COMMENT "ExactAudioCopy v1.3"
PERFORMER "Roger Hatcher"
TITLE "R & Better"
FILE "01 Sleepin' On The Job.wav" WAVE
TRACK 01 AUDIO
TITLE "Sleepin' On The Job"
PERFORMER "Roger Hatcher"
INDEX 01 00:00:00
FILE "02 You Must Have Come From Heaven.wav" WAVE
TRACK 02 AUDIO
TITLE "You Must Have Come From Heaven"
PERFORMER "Roger Hatcher"
INDEX 01 00:00:00
FILE "03 Let Your Love Shine On Me.wav" WAVE
TRACK 03 AUDIO
TITLE "Let Your Love Shine On Me"
PERFORMER "Roger Hatcher"
INDEX 01 00:00:00
FILE "04 Daylight Savings Time.wav" WAVE
TRACK 04 AUDIO
TITLE "Daylight Savings Time"
PERFORMER "Roger Hatcher"
INDEX 01 00:00:00
FILE "05 I'm A Junkie For Your Love.wav" WAVE
TRACK 05 AUDIO
TITLE "I'm A Junkie For Your Love"
PERFORMER "Roger Hatcher"
INDEX 01 00:00:00
FILE "06 Your Love Is A Masterpiece.wav" WAVE
TRACK 06 AUDIO
TITLE "Your Love Is A Masterpiece"
PERFORMER "Roger Hatcher"
INDEX 01 00:00:00
FILE "07 All My Love.wav" WAVE
TRACK 07 AUDIO
TITLE "All My Love"
PERFORMER "Roger Hatcher"
INDEX 01 00:00:00
FILE "08 Kung Fu And You Too.wav" WAVE
TRACK 08 AUDIO
TITLE "Kung Fu And You Too"
PERFORMER "Roger Hatcher"
INDEX 01 00:00:00
FILE "09 Struttin'.wav" WAVE
TRACK 09 AUDIO
TITLE "Struttin'"
PERFORMER "Roger Hatcher"
INDEX 01 00:00:00
FILE "10 My Thang.wav" WAVE
TRACK 10 AUDIO
TITLE "My Thang"
PERFORMER "Roger Hatcher"
INDEX 01 00:00:00
 
Об исполнителе (группе)
Roger Hatcher's biggest claim to fame is being a cousin to Edwin Starr (aka Charles Hatcher). Unfortunately, Hatcher's success hasn't come close to Edwin's. A prolific songwriter, Roger has written more than 1,000 songs. His two biggest successes were an album cut by the Dramatics of his "I Dedicate My Life to You," and Clarence Carter's rendition of "I Got Caught," a deep soul classic. Clarence added a rap and scored on the R&B charts with the Hatcher song. Roger Hatcher was born in Birmingham, AL, in 1946. His two older brothers, Will and Roosevelt, inspired him musically – Will played sax and Roosevelt sang. Hatcher wrote his first song, "I Need Someone," at Hayes High in Birmingham, where he would develop tunes on the piano in the music room. Hatcher had no formal training and played by ear.
He moved to Detroit in 1964 and signed with Dotty's Records. Two singles were released: "Get a Hold of Yourself" and "Party Over Yonder." The 45s are listed as by "Little Roger Hatcher." The flop of both singles sent him traveling to Nashville, where he secured a contract with Excello Records recording "I Dedicate My Song to You," released in 1968. The flip side, "The Sweetest Girl in the World," gained some recognition in Britain, but neither it, nor the A-side, did much in the States. Disappointed, Hatcher moved on and connected with Don Davis, who had previously recorded Hatcher's "Girl Come on Home" on Major Lance for Volt Records. Davis liked Hatcher's songs and signed him to Volt. The first recording was remaking "I Dedicate My Love to You" into "I Dedicate My Life to You." Stax released it on its Volt label in 1972. Davis was working with the Dramatics at the time and had Hatcher's song killed, then had it cut by the Dramatics and placed on their Dramatically Yours LP. This didn't please Hatcher and he and Davis became bitter enemies for years.
Lightning struck twice in 1973 when Hatcher, now living in Cleveland, OH, cut "Caught Making Love" on his own Black Soul label. Hatcher shopped it to all the majors to no avail, so he pressed up some more copies and sold them himself, at which time, Mickey Eichner of Columbia Records picked it up and released it on Columbia in 1974. Hatcher's version was risqué, to say the least, particulary for the mid-'70s. Halfway through Hatcher's record was a recording of Virginia Davis having an orgasm. Many stations banned the record, killing its chance for wider exposure. Clarence Carter heard it, added a rap, took out the woman's voice, and got a release on ABC Records in 1975. The song became a deep soul hit.
Hatcher went on to many other projects. The Platters, led by Clevelander Sonny Turner, recorded his "Get a Hold of Yourself in 1986; Deluxe Records released it in England. Based in Cleveland, Hatcher recorded singles on his own Super Bad label but all failed to score. Mysteriously, an unauthorized album was released in England of Hatcher's songs that he didn't find out about until British collectors bugged him for a copy. All the tracks were by Hatcher except two. In 1987, he moved to Los Angeles, where he still lives, records, and shops his demo tapes. An authorized Roger Hatcher album was released in Japan entitled The Best of Roger Hatcher. Britain's Expansion Records released The Roger Hatcher Collection on CD. It's worth a hear-see.
~ Artist Biography by Andrew Hamilton ~
Приватный:
Нет (DHT включён)
Размер:
256.01 Мб (268,450,999 байт) » файлов: 26
Участники:
0 раздают, 0 качают (0 участников всего)
Внешние участники:
2 раздают, 1 качают (3 участников всего) [ Обновить ]
Есть вопросы - пишите личное сообщение пользователю M0p94ok.
13:19
77
Нет комментариев. Ваш будет первым!