Поиск

(Soul, R&B) [CD] Linda Lewis - Fathoms Deep (1973) - 2012, FLAC (tracks+.cue), lossless

(Soul, R&B) [CD] Linda Lewis - Fathoms Deep (1973) - 2012, FLAC (tracks+.cue), lossless
Треклист:
Linda Lewis - Fathoms Deep (1973) Жанр: Soul, R&B
Носитель: CD
Год издания: 2012
Издатель (лейбл): Big Break Records
Номер по каталогу: CDBBR 0100
Аудиокодек: FLAC (*.flac)
Тип рипа: tracks+.cue
Битрейт аудио: lossless
Продолжительность: 48:14
Rip by JET 1
Наличие сканов в содержимом раздачи: да
Треклист:
01. Fathoms Deep (3:52)
02. I'm In Love Again (3:47)
03. Red Light Ladies (2:23)
04. If I Could (3:05)
05. Kingman-Tinman (3:19)
06. Lullabye (2:48)
07. Wise Eyes (2:46)
08. On The Stage (3:44)
09. Goodbye Joanna (3:10)
10. Guffer (4:25)
11. Moles (1:42)
12. Sideuffleway S (3:17)
13. Safe & Sound (4:03)
14. Play Around (3:11)
15. Red Light Ladies (Acoustic Demo Version) (2:42)
 
 
Об альбоме (сборнике)
Few artists can fuse genres as effortlessly as Linda Lewis. Along with her incredible 5 octave vocal range, Linda Lewis was able to integrate a host of different musical elements into her recordings. Folk, Soul, Pop and Rock were all incorporated helping Linda to create one of the most unique sounds to ever come out of the UK, releasing seven albums during the 1970’s.
Following on from her 1972 album Lark, Linda released FATHOMS DEEP. The album not only consolidated her status as one of Britain’s most promising young singers but also evidenced her singularity as a recording artist.
FATHOMS DEEP features ‘Red Light Ladies’, a Lewis classic that she continues to perform live today Also included are the album’s single release ‘Play Around’, and the funky Marvin Gaye-esque soul of ‘On The Stage,’ and the whimsical ‘Moles.’ This release also features the non-album single ‘Sideway Shuffle’ and it’s B-side ‘Safe And Sound’ as well as an acoustic demo version of ‘Red Light Ladies.’ Along with her solo successes, Linda Lewis also collaborated and toured with many of the worlds most successful artists such as Luther Vandross, Rod Stewart, David Bowie and Jamiroquai and most recently, Noel Gallagher.
 
 
Лог создания рипа
Exact Audio Copy V1.3 from 2. September 2016
EAC extraction logfile from 7. March 2017, 23:20
Linda Lewis / Fathoms Deep
Used drive : GENERIC CDRCB05 Adapter: 1 ID: 1
Read mode : Secure
Utilize accurate stream : Yes
Defeat audio cache : Yes
Make use of C2 pointers : No
Read offset correction : 102
Overread into Lead-In and Lead-Out : No
Fill up missing offset samples with silence : Yes
Delete leading and trailing silent blocks : No
Null samples used in CRC calculations : Yes
Used interface : Native Win32 interface for Win NT & 2000
Gap handling : Appended to previous track
Used output format : User Defined Encoder
Selected bitrate : 768 kBit/s
Quality : High
Add ID3 tag : No
Command line compressor : C:\Program Files (x86)\Exact Audio Copy\FLAC\FLAC.EXE
Additional command line options : -6 -V -T "ARTIST=%artist%" -T "TITLE=%title%" -T "ALBUM=%albumtitle%" -T "DATE=%year%" -T "TRACKNUMBER=%tracknr%" -T "GENRE=%genre%" -T "COMMENT=%comment%" -T "BAND=%albuminterpret%" -T "ALBUMARTIST=%albuminterpret%" -T "COMPOSER=%composer%" %haslyrics%--tag-from-file=LYRICS="%lyricsfile%"%haslyrics% -T "DISCNUMBER=%cdnumber%" -T "TOTALDISCS=%totalcds%" -T "TOTALTRACKS=%numtracks%" %hascover%--picture="%coverfile%"%hascover% %source% -o %dest%
TOC of the extracted CD
Track | Start | Length | Start sector | End sector
---------------------------------------------------------
1 | 0:00.00 | 3:51.47 | 0 | 17371
2 | 3:51.47 | 3:46.69 | 17372 | 34390
3 | 7:38.41 | 2:23.31 | 34391 | 45146
4 | 10:01.72 | 3:05.22 | 45147 | 59043
5 | 13:07.19 | 3:18.41 | 59044 | 73934
6 | 16:25.60 | 2:48.30 | 73935 | 86564
7 | 19:14.15 | 2:46.14 | 86565 | 99028
8 | 22:00.29 | 3:44.05 | 99029 | 115833
9 | 25:44.34 | 3:10.31 | 115834 | 130114
10 | 28:54.65 | 4:24.56 | 130115 | 149970
11 | 33:19.46 | 1:41.53 | 149971 | 157598
12 | 35:01.24 | 3:16.65 | 157599 | 172363
13 | 38:18.14 | 4:03.18 | 172364 | 190606
14 | 42:21.32 | 3:10.50 | 190607 | 204906
15 | 45:32.07 | 2:42.03 | 204907 | 217059
Track 1
Filename K:\MUSIC\Linda Lewis ‎- Fathoms Deep (1973) [2012 BBR]\01 Fathoms Deep.wav
Pre-gap length 0:00:02.00
Peak level 99.7 %
Extraction speed 2.4 X
Track quality 100.0 %
Test CRC D3A58DC2
Copy CRC D3A58DC2
Accurately ripped (confidence 3) [E113EC7A] (AR v2)
Copy OK
Track 2
Filename K:\MUSIC\Linda Lewis ‎- Fathoms Deep (1973) [2012 BBR]\02 I'm In Love Again.wav
Pre-gap length 0:00:00.36
Peak level 99.7 %
Extraction speed 2.6 X
Track quality 100.0 %
Test CRC 17B43F57
Copy CRC 17B43F57
Accurately ripped (confidence 3) [807432C6] (AR v2)
Copy OK
Track 3
Filename K:\MUSIC\Linda Lewis ‎- Fathoms Deep (1973) [2012 BBR]\03 Red Light Ladies.wav
Pre-gap length 0:00:00.69
Peak level 99.7 %
Extraction speed 2.2 X
Track quality 99.9 %
Test CRC BC4C7E78
Copy CRC BC4C7E78
Accurately ripped (confidence 3) [1538A93D] (AR v2)
Copy OK
Track 4
Filename K:\MUSIC\Linda Lewis ‎- Fathoms Deep (1973) [2012 BBR]\04 If I Could.wav
Pre-gap length 0:00:01.58
Peak level 99.7 %
Extraction speed 2.9 X
Track quality 100.0 %
Test CRC E1819775
Copy CRC E1819775
Accurately ripped (confidence 3) [1A87F013] (AR v2)
Copy OK
Track 5
Filename K:\MUSIC\Linda Lewis ‎- Fathoms Deep (1973) [2012 BBR]\05 Kingman-Tinman.wav
Pre-gap length 0:00:00.62
Peak level 99.7 %
Extraction speed 2.6 X
Track quality 99.9 %
Test CRC 11BCCC0A
Copy CRC 11BCCC0A
Accurately ripped (confidence 3) [7BD8B68F] (AR v2)
Copy OK
Track 6
Filename K:\MUSIC\Linda Lewis ‎- Fathoms Deep (1973) [2012 BBR]\06 Lullabye.wav
Pre-gap length 0:00:01.58
Peak level 89.1 %
Extraction speed 3.1 X
Track quality 100.0 %
Test CRC 0E0F0A8E
Copy CRC 0E0F0A8E
Accurately ripped (confidence 3) [2834E972] (AR v2)
Copy OK
Track 7
Filename K:\MUSIC\Linda Lewis ‎- Fathoms Deep (1973) [2012 BBR]\07 Wise Eyes.wav
Pre-gap length 0:00:01.58
Peak level 99.7 %
Extraction speed 3.2 X
Track quality 100.0 %
Test CRC 6C89DB79
Copy CRC 6C89DB79
Accurately ripped (confidence 3) [66DDEA36] (AR v2)
Copy OK
Track 8
Filename K:\MUSIC\Linda Lewis ‎- Fathoms Deep (1973) [2012 BBR]\08 On The Stage.wav
Pre-gap length 0:00:01.58
Peak level 99.7 %
Extraction speed 3.1 X
Track quality 99.9 %
Test CRC 21F8DD33
Copy CRC 21F8DD33
Accurately ripped (confidence 3) [0BFDE37B] (AR v2)
Copy OK
Track 9
Filename K:\MUSIC\Linda Lewis ‎- Fathoms Deep (1973) [2012 BBR]\09 Goodbye Joanna.wav
Pre-gap length 0:00:01.58
Peak level 99.7 %
Extraction speed 3.5 X
Track quality 100.0 %
Test CRC 250FAA81
Copy CRC 250FAA81
Accurately ripped (confidence 3) [5A2CB94D] (AR v2)
Copy OK
Track 10
Filename K:\MUSIC\Linda Lewis ‎- Fathoms Deep (1973) [2012 BBR]\10 Guffer.wav
Pre-gap length 0:00:01.58
Peak level 99.7 %
Extraction speed 3.9 X
Track quality 100.0 %
Test CRC 033D8A33
Copy CRC 033D8A33
Accurately ripped (confidence 3) [98436F9E] (AR v2)
Copy OK
Track 11
Filename K:\MUSIC\Linda Lewis ‎- Fathoms Deep (1973) [2012 BBR]\11 Moles.wav
Pre-gap length 0:00:01.58
Peak level 89.1 %
Extraction speed 3.3 X
Track quality 100.0 %
Test CRC 94FF55DB
Copy CRC 94FF55DB
Accurately ripped (confidence 3) [AD0D155C] (AR v2)
Copy OK
Track 12
Filename K:\MUSIC\Linda Lewis ‎- Fathoms Deep (1973) [2012 BBR]\12 Sideuffleway S.wav
Pre-gap length 0:00:02.58
Peak level 99.7 %
Extraction speed 3.4 X
Track quality 99.9 %
Test CRC 025D2A62
Copy CRC 025D2A62
Accurately ripped (confidence 3) [2865A3DA] (AR v2)
Copy OK
Track 13
Filename K:\MUSIC\Linda Lewis ‎- Fathoms Deep (1973) [2012 BBR]\13 Safe & Sound.wav
Pre-gap length 0:00:01.58
Peak level 99.7 %
Extraction speed 4.2 X
Track quality 100.0 %
Test CRC 9861BBF7
Copy CRC 9861BBF7
Accurately ripped (confidence 3) [72F0002B] (AR v2)
Copy OK
Track 14
Filename K:\MUSIC\Linda Lewis ‎- Fathoms Deep (1973) [2012 BBR]\14 Play Around.wav
Pre-gap length 0:00:01.58
Peak level 99.7 %
Extraction speed 4.2 X
Track quality 100.0 %
Test CRC FD0DC0EB
Copy CRC FD0DC0EB
Accurately ripped (confidence 3) [3ACCE3A6] (AR v2)
Copy OK
Track 15
Filename K:\MUSIC\Linda Lewis ‎- Fathoms Deep (1973) [2012 BBR]\15 Red Light Ladies - Acoustic Demo Version.wav
Pre-gap length 0:00:01.58
Peak level 99.0 %
Extraction speed 3.5 X
Track quality 99.9 %
Test CRC D89FADC5
Copy CRC D89FADC5
Accurately ripped (confidence 3) [07AD8C12] (AR v2)
Copy OK
All tracks accurately ripped
No errors occurred
End of status report
---- CUETools DB Plugin V2.1.6
[CTDB TOCID: lFCCpCvqNufldfVFN0fCiVI0t_E-] found
Submit result: lFCCpCvqNufldfVFN0fCiVI0t_E- has been confirmed
Track | CTDB Status
1 | (2/2) Accurately ripped
2 | (2/2) Accurately ripped
3 | (2/2) Accurately ripped
4 | (2/2) Accurately ripped
5 | (2/2) Accurately ripped
6 | (2/2) Accurately ripped
7 | (2/2) Accurately ripped
8 | (2/2) Accurately ripped
9 | (2/2) Accurately ripped
10 | (2/2) Accurately ripped
11 | (2/2) Accurately ripped
12 | (2/2) Accurately ripped
13 | (2/2) Accurately ripped
14 | (2/2) Accurately ripped
15 | (2/2) Accurately ripped
==== Log checksum 693B66F8C2F04580A13BAC7AE8E8852A495F7151EC5FE9465C3A0F7C6B7923D2 ====
 
Содержание индексной карты (.CUE)
REM GENRE R&B
REM DATE 1973
REM DISCID AF0B4E0F
REM COMMENT "ExactAudioCopy v1.3"
PERFORMER "Linda Lewis"
TITLE "Fathoms Deep"
FILE "01 Fathoms Deep.wav" WAVE
TRACK 01 AUDIO
TITLE "Fathoms Deep"
PERFORMER "Linda Lewis"
INDEX 01 00:00:00
TRACK 02 AUDIO
TITLE "I'm In Love Again"
PERFORMER "Linda Lewis"
INDEX 00 03:51:11
FILE "02 I'm In Love Again.wav" WAVE
INDEX 01 00:00:00
TRACK 03 AUDIO
TITLE "Red Light Ladies"
PERFORMER "Linda Lewis"
INDEX 00 03:46:00
FILE "03 Red Light Ladies.wav" WAVE
INDEX 01 00:00:00
TRACK 04 AUDIO
TITLE "If I Could"
PERFORMER "Linda Lewis"
INDEX 00 02:21:48
FILE "04 If I Could.wav" WAVE
INDEX 01 00:00:00
TRACK 05 AUDIO
TITLE "Kingman-Tinman"
PERFORMER "Linda Lewis"
INDEX 00 03:04:35
FILE "05 Kingman-Tinman.wav" WAVE
INDEX 01 00:00:00
TRACK 06 AUDIO
TITLE "Lullabye"
PERFORMER "Linda Lewis"
INDEX 00 03:16:58
FILE "06 Lullabye.wav" WAVE
INDEX 01 00:00:00
TRACK 07 AUDIO
TITLE "Wise Eyes"
PERFORMER "Linda Lewis"
INDEX 00 02:46:47
FILE "07 Wise Eyes.wav" WAVE
INDEX 01 00:00:00
TRACK 08 AUDIO
TITLE "On The Stage"
PERFORMER "Linda Lewis"
INDEX 00 02:44:31
FILE "08 On The Stage.wav" WAVE
INDEX 01 00:00:00
TRACK 09 AUDIO
TITLE "Goodbye Joanna"
PERFORMER "Linda Lewis"
INDEX 00 03:42:22
FILE "09 Goodbye Joanna.wav" WAVE
INDEX 01 00:00:00
TRACK 10 AUDIO
TITLE "Guffer"
PERFORMER "Linda Lewis"
INDEX 00 03:08:48
FILE "10 Guffer.wav" WAVE
INDEX 01 00:00:00
TRACK 11 AUDIO
TITLE "Moles"
PERFORMER "Linda Lewis"
INDEX 00 04:22:73
FILE "11 Moles.wav" WAVE
INDEX 01 00:00:00
TRACK 12 AUDIO
TITLE "Sideuffleway S"
PERFORMER "Linda Lewis"
INDEX 00 01:38:70
FILE "12 Sideuffleway S.wav" WAVE
INDEX 01 00:00:00
TRACK 13 AUDIO
TITLE "Safe & Sound"
PERFORMER "Linda Lewis"
INDEX 00 03:15:07
FILE "13 Safe & Sound.wav" WAVE
INDEX 01 00:00:00
TRACK 14 AUDIO
TITLE "Play Around"
PERFORMER "Linda Lewis"
INDEX 00 04:01:35
FILE "14 Play Around.wav" WAVE
INDEX 01 00:00:00
TRACK 15 AUDIO
TITLE "Red Light Ladies (Acoustic Demo Version)"
PERFORMER "Linda Lewis"
INDEX 00 03:08:67
FILE "15 Red Light Ladies (Acoustic Demo Version).wav" WAVE
INDEX 01 00:00:00
 
Приватный:
Нет (DHT включён)
Размер:
359.20 Мб (376,649,420 байт) » файлов: 31
Участники:
0 раздают, 0 качают (0 участников всего)
Внешние участники:
3 раздают, 1 качают (4 участников всего) [ Обновить ]
Есть вопросы - пишите личное сообщение пользователю M0p94ok.
13:20
91
Нет комментариев. Ваш будет первым!