Поиск

(Soul) [CD] Jennifer Holliday - The Song Is You - 2013, FLAC (tracks+.cue), lossless

(Soul) [CD] Jennifer Holliday - The Song Is You - 2013, FLAC (tracks+.cue), lossless
Треклист:
Jennifer Holliday - The Song Is You Жанр: Soul
Носитель: CD
Год издания: 2013
Издатель (лейбл): Shanachie
Номер по каталогу: SH-5811
Аудиокодек: FLAC (*.flac)
Тип рипа: tracks+.cue
Битрейт аудио: lossless
Продолжительность: 62:19
Rip by JET 1
Наличие сканов в содержимом раздачи: да
Треклист:
01. Prelude... Invitation To Love (0:47)
02. Love Dance (5:25)
03. The Look Of Love (5:39)
04. At Last (4:33)
05. Prelude... Jenny's Serenade Of Love (1:03)
06. The Song Is You (5:35)
07. Love Me By Name (6:42)
08. Touch (4:55)
09. Nobody Does It Better (3:58)
10. Prelude... Two Hearts "Real-Talk" In Love' (1:02)
11. Are You Leaving Me? (5:13)
12. The One You Used To Be (5:14)
13. It's Not About You (4:09)
14. Prelude... The Promise For True-Love (0:45)
15. Love Is On The Way (7:21)
 
 
AllMusic Review by Mark Deming
Jennifer Holliday shot from obscurity to stardom in 1981 when she originated the role of Effi in the Broadway musical Dreamgirls and introduced the song "And I Am Telling You I'm Not Going." Holliday quickly earned a reputation as one of the finest vocalists of her generation, but after focusing her talents on gospel music in 1995 with the album On & On, she retired from the recording studio. With 2014's The Song Is You, Holliday makes her long-awaited return to pop music, lending her rich voice and passionate vocal style to a romantic set of standards and R&B classics. The Song Is You includes the selections "At Last," "Nobody Does It Better," "The Look of Love," "Love Me by Name," and many more.
 
 
Лог создания рипа
Exact Audio Copy V1.3 from 2. September 2016
EAC extraction logfile from 15. February 2017, 19:45
JenniferYvetteHolliday,Riverside,TX / The SongIs You
Used drive : GENERIC CDRCB05 Adapter: 1 ID: 1
Read mode : Secure
Utilize accurate stream : Yes
Defeat audio cache : Yes
Make use of C2 pointers : No
Read offset correction : 102
Overread into Lead-In and Lead-Out : No
Fill up missing offset samples with silence : Yes
Delete leading and trailing silent blocks : No
Null samples used in CRC calculations : Yes
Used interface : Native Win32 interface for Win NT & 2000
Gap handling : Appended to previous track
Used output format : User Defined Encoder
Selected bitrate : 768 kBit/s
Quality : High
Add ID3 tag : No
Command line compressor : C:\Program Files (x86)\Exact Audio Copy\FLAC\FLAC.EXE
Additional command line options : -6 -V -T "ARTIST=%artist%" -T "TITLE=%title%" -T "ALBUM=%albumtitle%" -T "DATE=%year%" -T "TRACKNUMBER=%tracknr%" -T "GENRE=%genre%" -T "COMMENT=%comment%" -T "BAND=%albuminterpret%" -T "ALBUMARTIST=%albuminterpret%" -T "COMPOSER=%composer%" %haslyrics%--tag-from-file=LYRICS="%lyricsfile%"%haslyrics% -T "DISCNUMBER=%cdnumber%" -T "TOTALDISCS=%totalcds%" -T "TOTALTRACKS=%numtracks%" %hascover%--picture="%coverfile%"%hascover% %source% -o %dest%
TOC of the extracted CD
Track | Start | Length | Start sector | End sector
---------------------------------------------------------
1 | 0:00.00 | 0:46.54 | 0 | 3503
2 | 0:46.54 | 5:24.64 | 3504 | 27867
3 | 6:11.43 | 5:39.02 | 27868 | 53294
4 | 11:50.45 | 4:32.50 | 53295 | 73744
5 | 16:23.20 | 1:02.43 | 73745 | 78437
6 | 17:25.63 | 5:34.49 | 78438 | 103536
7 | 23:00.37 | 6:41.40 | 103537 | 133651
8 | 29:42.02 | 4:55.08 | 133652 | 155784
9 | 34:37.10 | 3:58.20 | 155785 | 173654
10 | 38:35.30 | 1:02.20 | 173655 | 178324
11 | 39:37.50 | 5:12.60 | 178325 | 201784
12 | 44:50.35 | 5:13.41 | 201785 | 225300
13 | 50:04.01 | 4:09.05 | 225301 | 243980
14 | 54:13.06 | 0:44.62 | 243981 | 247342
15 | 54:57.68 | 7:20.46 | 247343 | 280388
Track 1
Filename K:\MUSIC\Jennifer Holliday ‎- The Song Is You (2013)\01 Prelude-Invitation to Love.wav
Pre-gap length 0:00:02.00
Peak level 77.5 %
Extraction speed 0.9 X
Track quality 100.0 %
Test CRC DE1E953A
Copy CRC DE1E953A
Accurately ripped (confidence 3) [4EAF138E] (AR v2)
Copy OK
Track 2
Filename K:\MUSIC\Jennifer Holliday ‎- The Song Is You (2013)\02 Love Dance.wav
Peak level 97.7 %
Extraction speed 1.6 X
Track quality 100.0 %
Test CRC 7D20CDE9
Copy CRC 7D20CDE9
Accurately ripped (confidence 3) [1C949C34] (AR v2)
Copy OK
Track 3
Filename K:\MUSIC\Jennifer Holliday ‎- The Song Is You (2013)\03 The Look of Love.wav
Pre-gap length 0:00:01.47
Peak level 95.5 %
Extraction speed 1.8 X
Track quality 100.0 %
Test CRC 801A1646
Copy CRC 801A1646
Accurately ripped (confidence 3) [6ADC80E8] (AR v2)
Copy OK
Track 4
Filename K:\MUSIC\Jennifer Holliday ‎- The Song Is You (2013)\04 At Last.wav
Pre-gap length 0:00:02.24
Peak level 95.5 %
Extraction speed 1.9 X
Track quality 100.0 %
Test CRC A037EAAE
Copy CRC A037EAAE
Accurately ripped (confidence 3) [3E121F6B] (AR v2)
Copy OK
Track 5
Filename K:\MUSIC\Jennifer Holliday ‎- The Song Is You (2013)\05 Prelude-Jenny's Serenade of Love.wav
Pre-gap length 0:00:02.49
Peak level 97.7 %
Extraction speed 1.4 X
Track quality 100.0 %
Test CRC EA271E1D
Copy CRC EA271E1D
Accurately ripped (confidence 3) [4331C4F2] (AR v2)
Copy OK
Track 6
Filename K:\MUSIC\Jennifer Holliday ‎- The Song Is You (2013)\06 The Song is You.wav
Peak level 97.7 %
Extraction speed 2.0 X
Track quality 99.9 %
Test CRC A142BC75
Copy CRC A142BC75
Accurately ripped (confidence 3) [DA07369F] (AR v2)
Copy OK
Track 7
Filename K:\MUSIC\Jennifer Holliday ‎- The Song Is You (2013)\07 Love Me By Name.wav
Pre-gap length 0:00:01.66
Peak level 95.5 %
Extraction speed 2.4 X
Track quality 100.0 %
Test CRC 8FE39168
Copy CRC 8FE39168
Accurately ripped (confidence 3) [6EA6BE56] (AR v2)
Copy OK
Track 8
Filename K:\MUSIC\Jennifer Holliday ‎- The Song Is You (2013)\08 Touch.wav
Pre-gap length 0:00:02.36
Peak level 95.5 %
Extraction speed 2.2 X
Track quality 99.9 %
Test CRC 884D03E6
Copy CRC 884D03E6
Accurately ripped (confidence 3) [28AE30CC] (AR v2)
Copy OK
Track 9
Filename K:\MUSIC\Jennifer Holliday ‎- The Song Is You (2013)\09 Nobody Does it Better.wav
Pre-gap length 0:00:01.55
Peak level 97.7 %
Extraction speed 2.5 X
Track quality 100.0 %
Test CRC 9D392FE2
Copy CRC 9D392FE2
Accurately ripped (confidence 3) [13B2AC1D] (AR v2)
Copy OK
Track 10
Filename K:\MUSIC\Jennifer Holliday ‎- The Song Is You (2013)\10 Prelude-Two Hearts.wav
Pre-gap length 0:00:01.51
Peak level 96.0 %
Extraction speed 1.8 X
Track quality 100.0 %
Test CRC A82B1828
Copy CRC A82B1828
Accurately ripped (confidence 3) [7AA22F6A] (AR v2)
Copy OK
Track 11
Filename K:\MUSIC\Jennifer Holliday ‎- The Song Is You (2013)\11 Are You Leaving Me.wav
Peak level 97.7 %
Extraction speed 2.7 X
Track quality 100.0 %
Test CRC CD57B23C
Copy CRC CD57B23C
Accurately ripped (confidence 3) [FDD8BB41] (AR v2)
Copy OK
Track 12
Filename K:\MUSIC\Jennifer Holliday ‎- The Song Is You (2013)\12 The One You Used To Be.wav
Pre-gap length 0:00:01.51
Peak level 97.7 %
Extraction speed 2.8 X
Track quality 100.0 %
Test CRC 1A1DE4EB
Copy CRC 1A1DE4EB
Accurately ripped (confidence 3) [BA96616D] (AR v2)
Copy OK
Track 13
Filename K:\MUSIC\Jennifer Holliday ‎- The Song Is You (2013)\13 It's Not About You.wav
Pre-gap length 0:00:01.74
Peak level 95.5 %
Extraction speed 2.9 X
Track quality 100.0 %
Test CRC B045CB42
Copy CRC B045CB42
Accurately ripped (confidence 3) [8D9096AC] (AR v2)
Copy OK
Track 14
Filename K:\MUSIC\Jennifer Holliday ‎- The Song Is You (2013)\14 Prelude-The Promise for True Love.wav
Pre-gap length 0:00:01.47
Peak level 89.9 %
Extraction speed 1.2 X
Track quality 99.7 %
Test CRC B1577673
Copy CRC B1577673
Accurately ripped (confidence 3) [F8697FAE] (AR v2)
Copy OK
Track 15
Filename K:\MUSIC\Jennifer Holliday ‎- The Song Is You (2013)\15 Love Is On The Way.wav
Peak level 97.7 %
Extraction speed 3.2 X
Track quality 100.0 %
Test CRC 1E27EBEC
Copy CRC 1E27EBEC
Accurately ripped (confidence 3) [D6D55C11] (AR v2)
Copy OK
All tracks accurately ripped
No errors occurred
End of status report
---- CUETools DB Plugin V2.1.6
[CTDB TOCID: RMlar0CJUe4P88tia8gL2ysMSeg-] found
Submit result: RMlar0CJUe4P88tia8gL2ysMSeg- has been confirmed
Track | CTDB Status
1 | (4/4) Accurately ripped
2 | (4/4) Accurately ripped
3 | (4/4) Accurately ripped
4 | (4/4) Accurately ripped
5 | (4/4) Accurately ripped
6 | (4/4) Accurately ripped
7 | (4/4) Accurately ripped
8 | (4/4) Accurately ripped
9 | (4/4) Accurately ripped
10 | (4/4) Accurately ripped
11 | (4/4) Accurately ripped
12 | (4/4) Accurately ripped
13 | (4/4) Accurately ripped
14 | (4/4) Accurately ripped
15 | (4/4) Accurately ripped
==== Log checksum A341EE1118FAABFF216682AE99A1C4BD6BD5CD037BB0DD5878E6449C39BBE4E9 ====
 
Содержание индексной карты (.CUE)
REM GENRE Pop
REM DATE 2013
REM DISCID DF0E9A0F
REM COMMENT "ExactAudioCopy v1.3"
PERFORMER "Jennifer Holliday"
TITLE "The Song Is You"
FILE "01. Prelude... Invitation To Love.flac" WAVE
TRACK 01 AUDIO
TITLE "Prelude... Invitation To Love"
PERFORMER "Jennifer Holliday"
INDEX 01 00:00:00
FILE "02. Love Dance.flac" WAVE
TRACK 02 AUDIO
TITLE "Love Dance"
PERFORMER "Jennifer Holliday"
INDEX 01 00:00:00
TRACK 03 AUDIO
TITLE "The Look Of Love"
PERFORMER "Jennifer Holliday"
INDEX 00 05:23:17
FILE "03. The Look Of Love.flac" WAVE
INDEX 01 00:00:00
TRACK 04 AUDIO
TITLE "At Last"
PERFORMER "Jennifer Holliday"
INDEX 00 05:36:53
FILE "04. At Last.flac" WAVE
INDEX 01 00:00:00
TRACK 05 AUDIO
TITLE "Prelude... Jenny's Serenade Of Love"
PERFORMER "Jennifer Holliday"
INDEX 00 04:30:01
FILE "05. Prelude... Jenny's Serenade Of Love.flac" WAVE
INDEX 01 00:00:00
FILE "06. The Song Is You.flac" WAVE
TRACK 06 AUDIO
TITLE "The Song Is You"
PERFORMER "Jennifer Holliday"
INDEX 01 00:00:00
TRACK 07 AUDIO
TITLE "Love Me By Name"
PERFORMER "Jennifer Holliday"
INDEX 00 05:32:58
FILE "07. Love Me By Name.flac" WAVE
INDEX 01 00:00:00
TRACK 08 AUDIO
TITLE "Touch"
PERFORMER "Jennifer Holliday"
INDEX 00 06:39:04
FILE "08. Touch.flac" WAVE
INDEX 01 00:00:00
TRACK 09 AUDIO
TITLE "Nobody Does It Better"
PERFORMER "Jennifer Holliday"
INDEX 00 04:53:28
FILE "09. Nobody Does It Better.flac" WAVE
INDEX 01 00:00:00
TRACK 10 AUDIO
TITLE "Prelude... Two Hearts ''Real-Talk'' In Love'"
PERFORMER "Jennifer Holliday"
INDEX 00 03:56:44
FILE "10. Prelude... Two Hearts ''Real-Talk'' In Love'.flac" WAVE
INDEX 01 00:00:00
FILE "11. Are You Leaving Me.flac" WAVE
TRACK 11 AUDIO
TITLE "Are You Leaving Me?"
PERFORMER "Jennifer Holliday"
INDEX 01 00:00:00
TRACK 12 AUDIO
TITLE "The One You Used To Be"
PERFORMER "Jennifer Holliday"
INDEX 00 05:11:09
FILE "12. The One You Used To Be.flac" WAVE
INDEX 01 00:00:00
TRACK 13 AUDIO
TITLE "It's Not About You"
PERFORMER "Jennifer Holliday"
INDEX 00 05:11:42
FILE "13. It's Not About You.flac" WAVE
INDEX 01 00:00:00
TRACK 14 AUDIO
TITLE "Prelude... The Promise For True-Love"
PERFORMER "Jennifer Holliday"
INDEX 00 04:07:33
FILE "14. Prelude... The Promise For True-Love.flac" WAVE
INDEX 01 00:00:00
FILE "15. Love Is On The Way.flac" WAVE
TRACK 15 AUDIO
TITLE "Love Is On The Way"
PERFORMER "Jennifer Holliday"
INDEX 01 00:00:00
Приватный:
Нет (DHT включён)
Размер:
631.75 Мб (662,433,302 байт) » файлов: 34
Участники:
0 раздают, 0 качают (0 участников всего)
Внешние участники:
2 раздают, 1 качают (3 участников всего) [ Обновить ]
Есть вопросы - пишите личное сообщение пользователю M0p94ok.
13:21
78
Нет комментариев. Ваш будет первым!