Поиск

(New Orleans R&B, Funk, Soul) [CD] Lee Dorsey - Wheelin' And Dealin': The Definitive Collection - 1997, FLAC (tracks+.cue), lossless

(New Orleans R&B, Funk, Soul) [CD] Lee Dorsey - Wheelin' And Dealin': The Definitive Collection - 1997, FLAC (tracks+.cue), lossless
Треклист:
Lee Dorsey - Wheelin' And Dealin': The Definitive Collection Жанр: New Orleans R&B, Funk, Soul
Носитель: CD
Год издания: 1997
Издатель (лейбл): Arista
Номер по каталогу: ARCD 18980-2
Аудиокодек: FLAC (*.flac)
Тип рипа: tracks+.cue
Битрейт аудио: lossless
Продолжительность: 51:43
Источник (релизер): net
Наличие сканов в содержимом раздачи: да
Треклист:
01. Ya Ya (2:28)
02. Do-Re-Mi (2:15)
03. Ride Your Pony (2:54)
04. Work Work Work (2:29)
05. Can You Hear Me (2:15)
06. Get Out Of My Life Woman (2:28)
07. Confusion (2:28)
08. Working In A Coalmine (2:51)
09. Holy Cow (2:33)
10. Operation Headache (1:38)
11. Gotta Find A Job (2:29)
12. Love Lots Of Lovin' (3:01)
13. My Old Car (2:01)
14. Go-Go Girl (2:25)
15. I Can't Get Away (2:17)
16. Lottie Mo '68 (3:44)
17. A Lover Was Born (2:56)
18. Everything I Do Gohn Be Funky (From Now On) (3:11)
19. Give It Up (3:05)
20. Candy Yam (2:14)
 
 
AllMusic Review by Stephen Thomas Erlewine
Wheelin' and Dealin': The Definitive Collection pretty much lives up to its title, presenting 20 choice selections from one of the greatest figures of New Orleans R&B. All of his big singles are here -- "Ya Ya," "Do-Re-Mi," "Ride Your Pony," "Get Out of My Life Woman," "Working in a Coal Mine," "Holy Cow," "Everything I Do Gonh Be Funky (From Now On)" -- along with lots of great lesser-known singles like "Confusion," "Can You Hear Me," and "My Old Car." There are some really good songs missing, both from his prime Bell recordings and such latter-day singles as "Sneaking Sally Through the Alley," but that's primarily because everything Dorsey cut was consistently enjoyable; even when the quality of the material dipped, the band and Dorsey remained appealing. So, even if there's a handful of songs that could have been here, it's impossible to argue with what is, since it does result in a wonderful, endlessly listenable collection.
 
 
Лог создания рипа
EAC extraction logfile from 18. January 2006, 9:34 for CD
Lee Dorsey / Wheelin' And Dealin' - The Definitive Collection
Used drive : LITE-ON DVDRW SOHW-1633S Adapter: 0 ID: 0
Read mode : Secure with NO C2, accurate stream, disable cache
Read offset correction : 12
Overread into Lead-In and Lead-Out : No
Used output format : Internal WAV Routines
44.100 Hz; 16 Bit; Stereo
Other options :
Fill up missing offset samples with silence : Yes
Delete leading and trailing silent blocks : No
Installed external ASPI interface
Track 1
Filename D:\FLAC\Lee Dorsey - Wheelin' And Dealin'-The Definitive Collection (1997) [FLAC]\01 - Ya Ya.wav
Pre-gap length 0:00:02.00
Peak level 98.8 %
Track quality 100.0 %
Test CRC 5EB6512E
Copy CRC 5EB6512E
Copy OK
Track 2
Filename D:\FLAC\Lee Dorsey - Wheelin' And Dealin'-The Definitive Collection (1997) [FLAC]\02 - Do-Re-Mi.wav
Pre-gap length 0:00:01.73
Peak level 98.8 %
Track quality 99.9 %
Test CRC DBF6ABD8
Copy CRC DBF6ABD8
Copy OK
Track 3
Filename D:\FLAC\Lee Dorsey - Wheelin' And Dealin'-The Definitive Collection (1997) [FLAC]\03 - Ride Your Pony.wav
Pre-gap length 0:00:01.74
Peak level 98.5 %
Track quality 100.0 %
Test CRC 18063941
Copy CRC 18063941
Copy OK
Track 4
Filename D:\FLAC\Lee Dorsey - Wheelin' And Dealin'-The Definitive Collection (1997) [FLAC]\04 - Work Work Work.wav
Pre-gap length 0:00:01.73
Peak level 98.8 %
Track quality 100.0 %
Test CRC AF3D84E1
Copy CRC AF3D84E1
Copy OK
Track 5
Filename D:\FLAC\Lee Dorsey - Wheelin' And Dealin'-The Definitive Collection (1997) [FLAC]\05 - Can You Hear Me.wav
Pre-gap length 0:00:01.73
Peak level 98.8 %
Track quality 100.0 %
Test CRC C574FA13
Copy CRC C574FA13
Copy OK
Track 6
Filename D:\FLAC\Lee Dorsey - Wheelin' And Dealin'-The Definitive Collection (1997) [FLAC]\06 - Get Out Of My Life Woman.wav
Pre-gap length 0:00:01.72
Peak level 98.6 %
Track quality 100.0 %
Test CRC D8B33C96
Copy CRC D8B33C96
Copy OK
Track 7
Filename D:\FLAC\Lee Dorsey - Wheelin' And Dealin'-The Definitive Collection (1997) [FLAC]\07 - Confusion.wav
Pre-gap length 0:00:01.73
Peak level 98.8 %
Track quality 100.0 %
Test CRC 906E2E3D
Copy CRC 906E2E3D
Copy OK
Track 8
Filename D:\FLAC\Lee Dorsey - Wheelin' And Dealin'-The Definitive Collection (1997) [FLAC]\08 - Working In A Coalmine.wav
Pre-gap length 0:00:01.73
Peak level 98.8 %
Track quality 100.0 %
Test CRC D0D48C21
Copy CRC D0D48C21
Copy OK
Track 9
Filename D:\FLAC\Lee Dorsey - Wheelin' And Dealin'-The Definitive Collection (1997) [FLAC]\09 - Holy Cow.wav
Pre-gap length 0:00:01.72
Peak level 98.8 %
Track quality 100.0 %
Test CRC 9AD3D3C7
Copy CRC 9AD3D3C7
Copy OK
Track 10
Filename D:\FLAC\Lee Dorsey - Wheelin' And Dealin'-The Definitive Collection (1997) [FLAC]\10 - Operation Headache.wav
Pre-gap length 0:00:01.73
Peak level 89.7 %
Track quality 100.0 %
Test CRC 45471BAD
Copy CRC 45471BAD
Copy OK
Track 11
Filename D:\FLAC\Lee Dorsey - Wheelin' And Dealin'-The Definitive Collection (1997) [FLAC]\11 - Gotta Find A Job.wav
Pre-gap length 0:00:01.73
Peak level 71.9 %
Track quality 100.0 %
Test CRC 570A1C6D
Copy CRC 570A1C6D
Copy OK
Track 12
Filename D:\FLAC\Lee Dorsey - Wheelin' And Dealin'-The Definitive Collection (1997) [FLAC]\12 - Love Lots Of Lovin'.wav
Pre-gap length 0:00:01.73
Peak level 98.8 %
Track quality 100.0 %
Test CRC 61C39C09
Copy CRC 61C39C09
Copy OK
Track 13
Filename D:\FLAC\Lee Dorsey - Wheelin' And Dealin'-The Definitive Collection (1997) [FLAC]\13 - My Old Car.wav
Pre-gap length 0:00:01.73
Peak level 83.7 %
Track quality 99.9 %
Test CRC 4C9E1A93
Copy CRC 4C9E1A93
Copy OK
Track 14
Filename D:\FLAC\Lee Dorsey - Wheelin' And Dealin'-The Definitive Collection (1997) [FLAC]\14 - Go-Go Girl.wav
Pre-gap length 0:00:01.73
Peak level 96.5 %
Track quality 100.0 %
Test CRC 6EC95E15
Copy CRC 6EC95E15
Copy OK
Track 15
Filename D:\FLAC\Lee Dorsey - Wheelin' And Dealin'-The Definitive Collection (1997) [FLAC]\15 - I Can't Get Away.wav
Pre-gap length 0:00:01.72
Peak level 82.4 %
Track quality 100.0 %
Test CRC B76E2439
Copy CRC B76E2439
Copy OK
Track 16
Filename D:\FLAC\Lee Dorsey - Wheelin' And Dealin'-The Definitive Collection (1997) [FLAC]\16 - Lottie Mo '68.wav
Pre-gap length 0:00:01.73
Peak level 98.8 %
Track quality 100.0 %
Test CRC DFDFB1F9
Copy CRC DFDFB1F9
Copy OK
Track 17
Filename D:\FLAC\Lee Dorsey - Wheelin' And Dealin'-The Definitive Collection (1997) [FLAC]\17 - A Lover Was Born.wav
Pre-gap length 0:00:01.73
Peak level 98.8 %
Track quality 100.0 %
Test CRC 6D4C5E33
Copy CRC 6D4C5E33
Copy OK
Track 18
Filename D:\FLAC\Lee Dorsey - Wheelin' And Dealin'-The Definitive Collection (1997) [FLAC]\18 - Everything I Do Gohn Be Funky (From Now On).wav
Pre-gap length 0:00:01.73
Peak level 98.8 %
Track quality 100.0 %
Test CRC 02EAB571
Copy CRC 02EAB571
Copy OK
Track 19
Filename D:\FLAC\Lee Dorsey - Wheelin' And Dealin'-The Definitive Collection (1997) [FLAC]\19 - Give It Up.wav
Pre-gap length 0:00:01.68
Peak level 89.2 %
Track quality 100.0 %
Test CRC BD2F8253
Copy CRC BD2F8253
Copy OK
Track 20
Filename D:\FLAC\Lee Dorsey - Wheelin' And Dealin'-The Definitive Collection (1997) [FLAC]\20 - Candy Yam.wav
Pre-gap length 0:00:01.73
Peak level 91.5 %
Track quality 99.9 %
Test CRC 06F2D651
Copy CRC 06F2D651
Copy OK
No errors occured
End of status report
 
Содержание индексной карты (.CUE)
REM GENRE Blues
REM DATE 1997
PERFORMER "Lee Dorsey"
TITLE "Wheelin' And Dealin' - The Definitive Collection"
FILE "01 - Ya Ya.wav" WAVE
TRACK 01 AUDIO
TITLE "Ya Ya"
PERFORMER "Lee Dorsey"
INDEX 01 00:00:00
TRACK 02 AUDIO
TITLE "Do-Re-Mi"
PERFORMER "Lee Dorsey"
INDEX 00 02:26:17
FILE "02 - Do-Re-Mi.wav" WAVE
INDEX 01 00:00:00
TRACK 03 AUDIO
TITLE "Ride Your Pony"
PERFORMER "Lee Dorsey"
INDEX 00 02:13:04
FILE "03 - Ride Your Pony.wav" WAVE
INDEX 01 00:00:00
TRACK 04 AUDIO
TITLE "Work Work Work"
PERFORMER "Lee Dorsey"
INDEX 00 02:52:08
FILE "04 - Work Work Work.wav" WAVE
INDEX 01 00:00:00
TRACK 05 AUDIO
TITLE "Can You Hear Me"
PERFORMER "Lee Dorsey"
INDEX 00 02:27:10
FILE "05 - Can You Hear Me.wav" WAVE
INDEX 01 00:00:00
TRACK 06 AUDIO
TITLE "Get Out Of My Life Woman"
PERFORMER "Lee Dorsey"
INDEX 00 02:13:58
FILE "06 - Get Out Of My Life Woman.wav" WAVE
INDEX 01 00:00:00
TRACK 07 AUDIO
TITLE "Confusion"
PERFORMER "Lee Dorsey"
INDEX 00 02:26:23
FILE "07 - Confusion.wav" WAVE
INDEX 01 00:00:00
TRACK 08 AUDIO
TITLE "Working In A Coalmine"
PERFORMER "Lee Dorsey"
INDEX 00 02:26:37
FILE "08 - Working In A Coalmine.wav" WAVE
INDEX 01 00:00:00
TRACK 09 AUDIO
TITLE "Holy Cow"
PERFORMER "Lee Dorsey"
INDEX 00 02:49:58
FILE "09 - Holy Cow.wav" WAVE
INDEX 01 00:00:00
TRACK 10 AUDIO
TITLE "Operation Headache"
PERFORMER "Lee Dorsey"
INDEX 00 02:31:23
FILE "10 - Operation Headache.wav" WAVE
INDEX 01 00:00:00
TRACK 11 AUDIO
TITLE "Gotta Find A Job"
PERFORMER "Lee Dorsey"
INDEX 00 01:36:35
FILE "11 - Gotta Find A Job.wav" WAVE
INDEX 01 00:00:00
TRACK 12 AUDIO
TITLE "Love Lots Of Lovin'"
PERFORMER "Lee Dorsey"
INDEX 00 02:27:23
FILE "12 - Love Lots Of Lovin'.wav" WAVE
INDEX 01 00:00:00
TRACK 13 AUDIO
TITLE "My Old Car"
PERFORMER "Lee Dorsey"
INDEX 00 02:59:35
FILE "13 - My Old Car.wav" WAVE
INDEX 01 00:00:00
TRACK 14 AUDIO
TITLE "Go-Go Girl"
PERFORMER "Lee Dorsey"
INDEX 00 01:59:32
FILE "14 - Go-Go Girl.wav" WAVE
INDEX 01 00:00:00
TRACK 15 AUDIO
TITLE "I Can't Get Away"
PERFORMER "Lee Dorsey"
INDEX 00 02:23:16
FILE "15 - I Can't Get Away.wav" WAVE
INDEX 01 00:00:00
TRACK 16 AUDIO
TITLE "Lottie Mo '68"
PERFORMER "Lee Dorsey"
INDEX 00 02:14:65
FILE "16 - Lottie Mo '68.wav" WAVE
INDEX 01 00:00:00
TRACK 17 AUDIO
TITLE "A Lover Was Born"
PERFORMER "Lee Dorsey"
INDEX 00 03:41:70
FILE "17 - A Lover Was Born.wav" WAVE
INDEX 01 00:00:00
TRACK 18 AUDIO
TITLE "Everything I Do Gohn Be Funky (From Now On)"
PERFORMER "Lee Dorsey"
INDEX 00 02:54:45
FILE "18 - Everything I Do Gohn Be Funky (From Now On).wav" WAVE
INDEX 01 00:00:00
TRACK 19 AUDIO
TITLE "Give It Up"
PERFORMER "Lee Dorsey"
INDEX 00 03:08:74
FILE "19 - Give It Up.wav" WAVE
INDEX 01 00:00:00
TRACK 20 AUDIO
TITLE "Candy Yam"
PERFORMER "Lee Dorsey"
INDEX 00 03:03:08
FILE "20 - Candy Yam.wav" WAVE
INDEX 01 00:00:00
 
CUETools log
[CUETools log; Date: 20.03.2017 16:39:34; Version: 2.0.9]
[CTDB TOCID: H.lc9JtXu0lqa7iXJSyuSifr0Ek-] found.
[ CTDBID ] Status
[4a01da84] (09/10) Accurately ripped
[8380abe2] (01/10) No match
[AccurateRip ID: 00242e0b-02153fb3-1a0c1e14] found.
Track [ CRC ] Status
01 [05e29c2f] (05/17) Accurately ripped
02 [1a8a4175] (05/17) Accurately ripped
03 [f03c3b61] (05/17) Accurately ripped
04 [508c8f86] (05/17) Accurately ripped
05 [bb2049ff] (05/19) Accurately ripped
06 [2d6c859e] (05/17) Accurately ripped
07 [e4030790] (05/17) Accurately ripped
08 [c7c13e2d] (05/17) Accurately ripped
09 [6f5cb129] (05/17) Accurately ripped
10 [66f08b1d] (05/17) Accurately ripped
11 [58783777] (05/17) Accurately ripped
12 [d2827de2] (05/17) Accurately ripped
13 [4ffb5fcb] (05/17) Accurately ripped
14 [f7a003ad] (05/17) Accurately ripped
15 [7c5bc5f0] (05/17) Accurately ripped
16 [e1ea414e] (05/17) Accurately ripped
17 [7596c97d] (05/17) Accurately ripped
18 [cf3a65ae] (05/17) Accurately ripped
19 [49829e16] (05/17) Accurately ripped
20 [e5bb42a5] (05/17) Accurately ripped
Offsetted by -1:
01 [f3bee93f] (00/17) No match
02 [12607abf] (00/17) No match
03 [285c754b] (00/17) No match
04 [7442db7e] (00/17) No match
05 [a1749d2b] (05/19) No match but offset
06 [dfb469d7] (00/17) No match
07 [712f1e92] (00/17) No match
08 [1d0a9f7d] (00/17) No match
09 [cde77bb7] (00/17) No match
10 [9dd555b8] (00/17) No match
11 [7ce6e80f] (00/17) No match
12 [c83a4860] (00/17) No match
13 [a6700200] (00/17) No match
14 [0d601129] (00/17) No match
15 [e8304c25] (00/17) No match
16 [6631b489] (00/17) No match
17 [660adef0] (00/17) No match
18 [bc739286] (00/17) No match
19 [e4d9021d] (00/17) No match
20 [e7d45467] (00/17) No match
Track Peak [ CRC32 ] [W/O NULL] [ LOG ]
-- 98,8 [E970E597] [3A7A2BAB]
01 98,8 [5EB6512E] [ADDE4C06] CRC32
02 98,8 [DBF6ABD8] [FF234963] CRC32
03 98,5 [18063941] [3BF61931] CRC32
04 98,8 [AF3D84E1] [4193FA6D] CRC32
05 98,8 [C574FA13] [EAA43E65] CRC32
06 98,6 [D8B33C96] [076FF98B] CRC32
07 98,8 [906E2E3D] [50CED6BD] CRC32
08 98,8 [D0D48C21] [11813675] CRC32
09 98,8 [9AD3D3C7] [1F6C08B4] CRC32
10 89,7 [45471BAD] [A4BA10CF] CRC32
11 71,9 [570A1C6D] [6969D4EF] CRC32
12 98,8 [61C39C09] [DDC1C805] CRC32
13 83,7 [4C9E1A93] [CAEA9BDE] CRC32
14 96,5 [6EC95E15] [78D88BBF] CRC32
15 82,4 [B76E2439] [83A36794] CRC32
16 98,8 [DFDFB1F9] [C20F8C3F] CRC32
17 98,8 [6D4C5E33] [FC3D2A39] CRC32
18 98,8 [02EAB571] [9199068E] CRC32
19 89,2 [BD2F8253] [EC58AF2D] CRC32
20 91,5 [06F2D651] [0B99776D] CRC32
Приватный:
Нет (DHT включён)
Размер:
307.54 Мб (322,484,122 байт) » файлов: 36
Участники:
0 раздают, 0 качают (0 участников всего)
Внешние участники:
5 раздают, 2 качают (7 участников всего) [ Обновить ]
No seeders - write a personal message to user M0p94ok. Нет сидеров - пишите личное сообщение пользователю M0p94ok.
13:21
61
Нет комментариев. Ваш будет первым!