Поиск

(R&B, Soul) [CD] Wilson Pickett - Funky Midnight Mover: The Atlantic Studio Recordings (1962-1978) - 2010, FLAC (tracks), lossless

(R&B, Soul) [CD] Wilson Pickett - Funky Midnight Mover: The Atlantic Studio Recordings (1962-1978) - 2010, FLAC (tracks), lossless
Треклист:
Wilson Pickett
Funky Midnight Mover: The Atlantic Studio Recordings (1962-1978) Жанр: R&B, Soul
Носитель: CD
Год издания: 2010
Издатель (лейбл): Rhino
Номер по каталогу: RHM2 07753
Аудиокодек: FLAC (*.flac)
Тип рипа: tracks
Битрейт аудио: lossless
Продолжительность: 01:15:17 + 01:18:35 + 01:17:41 + 01:17:40 + 01:19:43 + 01:15:30
Источник (релизер): скачано в сети
Наличие сканов в содержимом раздачи: да
 
DISC1
Треклист:
The Falcons
1. I Found A Love 2:59
2. Let's Kiss And Make Up 2:34
3. Take This Love I've Got 2:17
Wilson Pickett
4. My Heart Belongs To You 2:40
5. Let Me Be Your Boy 2:48
6. If You Need Me 2:38
7. Baby Call On Me 2:27
8. It's Too Late 3:13
9. I'm Gonna Love You 2:15
10. I'm Down To My Last Heartbreak 2:41
11. I Can't Stop 2:34
12. Baby, Don't You Weep 2:14
13. Peace Breaker 2:42
14. I'll Never Be The Same 2:36
15. Give All Your Lovin' Right Now 2:21
16. I'm Gonna Cry 2:20
17. For Better Or Worse 2:48
18. Teardrops Will Fall 2:34
19. Come Home Baby 2:38
20. Take A Little Love 2:24
21. Don't Fight It 2:37
22. That's A Man's Way 2:25
23. In The Midnight Hour 2:35
24. I'm Not Tired 2:49
25. It's All Over 2:22
26. Danger Zone 2:13
27. I'm Drifting 2:55
28. 634-5789 3:01
29. Ninety-Nine And One-Half (Won't Do) 2:44
30. You're So Fine 2:39
 
Лог создания рипа
Exact Audio Copy V0.99 prebeta 5 from 4. May 2009
EAC extraction logfile from 12. July 2010, 21:38
Wilson Pickett / Funky Midnight Mover: The Atlantic Studio Recordings 1962 - 1978 [Disc 1]
Used drive : HP DVD Writer 1040r Adapter: 1 ID: 0
Read mode : Secure
Utilize accurate stream : Yes
Defeat audio cache : Yes
Make use of C2 pointers : No
Read offset correction : 6
Overread into Lead-In and Lead-Out : No
Fill up missing offset samples with silence : Yes
Delete leading and trailing silent blocks : No
Null samples used in CRC calculations : Yes
Used interface : Native Win32 interface for Win NT & 2000
Used output format : User Defined Encoder
Selected bitrate : 1024 kBit/s
Quality : High
Add ID3 tag : No
Command line compressor : C:\Program Files\Exact Audio Copy\FLAC\FLAC.EXE
Additional command line options : -5 -V -T "ARTIST=%a" -T "TITLE=%t" -T "ALBUM=%g" -T "DATE=%y" -T "TRACKNUMBER=%n" -T "GENRE=%m" -T "COMMENT=EAC Flac 1.1.2 -5" %s
TOC of the extracted CD
Track | Start | Length | Start sector | End sector
---------------------------------------------------------
1 | 0:00.00 | 2:58.46 | 0 | 13395
2 | 2:58.46 | 2:35.13 | 13396 | 25033
3 | 5:33.59 | 2:16.21 | 25034 | 35254
4 | 7:50.05 | 2:21.60 | 35255 | 45889
5 | 10:11.65 | 2:45.60 | 45890 | 58324
6 | 12:57.50 | 2:36.07 | 58325 | 70031
7 | 15:33.57 | 2:26.38 | 70032 | 81019
8 | 18:00.20 | 3:11.07 | 81020 | 95351
9 | 21:11.27 | 2:13.49 | 95352 | 105375
10 | 23:25.01 | 2:39.04 | 105376 | 117304
11 | 26:04.05 | 2:32.20 | 117305 | 128724
12 | 28:36.25 | 2:12.25 | 128725 | 138649
13 | 30:48.50 | 2:40.29 | 138650 | 150678
14 | 33:29.04 | 2:40.41 | 150679 | 162719
15 | 36:09.45 | 2:19.51 | 162720 | 173195
16 | 38:29.21 | 2:20.71 | 173196 | 183766
17 | 40:50.17 | 2:47.29 | 183767 | 196320
18 | 43:37.46 | 2:32.32 | 196321 | 207752
19 | 46:10.03 | 2:36.49 | 207753 | 219501
20 | 48:46.52 | 2:23.49 | 219502 | 230275
21 | 51:10.26 | 2:34.54 | 230276 | 241879
22 | 53:45.05 | 2:23.62 | 241880 | 252666
23 | 56:08.67 | 2:34.09 | 252667 | 264225
24 | 58:43.01 | 2:47.04 | 264226 | 276754
25 | 61:30.05 | 2:21.20 | 276755 | 287349
26 | 63:51.25 | 2:12.09 | 287350 | 297258
27 | 66:03.34 | 2:53.40 | 297259 | 310273
28 | 68:56.74 | 2:58.41 | 310274 | 323664
29 | 71:55.40 | 2:42.59 | 323665 | 335873
30 | 74:38.24 | 2:36.51 | 335874 | 347624
Range status and errors
Selected range
Filename C:\Users\Mike3\Desktop\Wilson Pickett - Funky Midnight Mover - The Atlantic Studio Recordings 1962-1978\Disc 1\Wilson Pickett - Funky Midnight Mover The Atlantic Studio Recordings 1962 - 1978 [Disc 1].wav
Peak level 99.8 %
Range quality 100.0 %
Copy CRC FC219540
Copy OK
No errors occurred
AccurateRip summary
Track 1 not present in database
Track 2 not present in database
Track 3 not present in database
Track 4 not present in database
Track 5 not present in database
Track 6 not present in database
Track 7 not present in database
Track 8 not present in database
Track 9 not present in database
Track 10 not present in database
Track 11 not present in database
Track 12 not present in database
Track 13 not present in database
Track 14 not present in database
Track 15 not present in database
Track 16 not present in database
Track 17 not present in database
Track 18 not present in database
Track 19 not present in database
Track 20 not present in database
Track 21 not present in database
Track 22 not present in database
Track 23 not present in database
Track 24 not present in database
Track 25 not present in database
Track 26 not present in database
Track 27 not present in database
Track 28 not present in database
Track 29 not present in database
Track 30 not present in database
None of the tracks are present in the AccurateRip database
End of status report
 
DISC2
Треклист:
1. Land Of 1000 Dances 2:29
2. Something You Got 2:59
3. She Ain't Gonna Do Right 2:17
4. She's So Good To Me 2:21
5. Barefootin' 2:22
6. Nothing You Can Do 2:15
7. Mercy, Mercy 2:31
8. I Need A Lot Of Loving Every Day 2:25
9. Everybody Needs Somebody To Love 2:22
10. Sunny 3:11
11. New Orleans 2:32
12. You Left The Water Running 2:29
13. Mustang Sally 3:10
14. Three Time Loser 2:26
15. Ooh Poo Pah Doo 2:34
16. Up Tight Good Woman 2:32
17. Time Is On My Side 2:36
18. Knock On Wood 2:41
19. Love Is A Beautiful Thing 2:19
20. Soul Dance Number Three 2:43
21. Funky Broadway 2:38
22. Mojo Mama 2:04
23. I Found A Love 2:36
24. I Found A Love 3:02
25. I Found The One 2:35
26. You Can't Stand Alone 2:53
27. I'm Sorry About That 3:08
28. Something Within Me 3:45
29. We've Got To Have Love 2:09
30. She's Lookin' Good 2:26
 
Лог создания рипа
Exact Audio Copy V0.99 prebeta 5 from 4. May 2009
EAC extraction logfile from 12. July 2010, 22:46
Wilson Pickett / Funky Midnight Mover: The Atlantic Studio Recordings 1962 - 1978 [Disc 2]
Used drive : HP DVD Writer 1040r Adapter: 1 ID: 0
Read mode : Secure
Utilize accurate stream : Yes
Defeat audio cache : Yes
Make use of C2 pointers : No
Read offset correction : 6
Overread into Lead-In and Lead-Out : No
Fill up missing offset samples with silence : Yes
Delete leading and trailing silent blocks : No
Null samples used in CRC calculations : Yes
Used interface : Native Win32 interface for Win NT & 2000
Used output format : User Defined Encoder
Selected bitrate : 1024 kBit/s
Quality : High
Add ID3 tag : No
Command line compressor : C:\Program Files\Exact Audio Copy\FLAC\FLAC.EXE
Additional command line options : -5 -V -T "ARTIST=%a" -T "TITLE=%t" -T "ALBUM=%g" -T "DATE=%y" -T "TRACKNUMBER=%n" -T "GENRE=%m" -T "COMMENT=EAC Flac 1.1.2 -5" %s
TOC of the extracted CD
Track | Start | Length | Start sector | End sector
---------------------------------------------------------
1 | 0:00.00 | 2:26.36 | 0 | 10985
2 | 2:26.36 | 2:55.65 | 10986 | 24175
3 | 5:22.26 | 2:15.48 | 24176 | 34348
4 | 7:37.74 | 2:19.01 | 34349 | 44774
5 | 9:57.00 | 2:19.67 | 44775 | 55266
6 | 12:16.67 | 2:17.29 | 55267 | 65570
7 | 14:34.21 | 2:28.56 | 65571 | 76726
8 | 17:03.02 | 2:21.70 | 76727 | 87371
9 | 19:24.72 | 2:20.16 | 87372 | 97887
10 | 21:45.13 | 3:19.36 | 97888 | 112848
11 | 25:04.49 | 2:34.26 | 112849 | 124424
12 | 27:39.00 | 2:36.60 | 124425 | 136184
13 | 30:15.60 | 3:07.20 | 136185 | 150229
14 | 33:23.05 | 2:23.59 | 150230 | 161013
15 | 35:46.64 | 2:41.08 | 161014 | 173096
16 | 38:27.72 | 2:32.43 | 173097 | 184539
17 | 41:00.40 | 2:39.09 | 184540 | 196473
18 | 43:39.49 | 2:43.15 | 196474 | 208713
19 | 46:22.64 | 2:20.05 | 208714 | 219218
20 | 48:42.69 | 2:43.24 | 219219 | 231467
21 | 51:26.18 | 2:39.11 | 231468 | 243403
22 | 54:05.29 | 2:01.54 | 243404 | 252532
23 | 56:07.08 | 2:35.05 | 252533 | 264162
24 | 58:42.13 | 3:04.47 | 264163 | 278009
25 | 61:46.60 | 2:33.30 | 278010 | 289514
26 | 64:20.15 | 2:53.34 | 289515 | 302523
27 | 67:13.49 | 3:07.36 | 302524 | 316584
28 | 70:21.10 | 3:42.45 | 316585 | 333279
29 | 74:03.55 | 2:07.53 | 333280 | 342857
30 | 76:11.33 | 2:23.55 | 342858 | 353637
Range status and errors
Selected range
Filename C:\Users\Mike3\Desktop\Wilson Pickett - Funky Midnight Mover - The Atlantic Studio Recordings 1962-1978\Disc 2\Wilson Pickett - Funky Midnight Mover The Atlantic Studio Recordings 1962 - 1978 [Disc 2].wav
Peak level 99.8 %
Range quality 100.0 %
Copy CRC B535D5F6
Copy OK
No errors occurred
AccurateRip summary
Track 1 not present in database
Track 2 not present in database
Track 3 not present in database
Track 4 not present in database
Track 5 not present in database
Track 6 not present in database
Track 7 not present in database
Track 8 not present in database
Track 9 not present in database
Track 10 not present in database
Track 11 not present in database
Track 12 not present in database
Track 13 not present in database
Track 14 not present in database
Track 15 not present in database
Track 16 not present in database
Track 17 not present in database
Track 18 not present in database
Track 19 not present in database
Track 20 not present in database
Track 21 not present in database
Track 22 not present in database
Track 23 not present in database
Track 24 not present in database
Track 25 not present in database
Track 26 not present in database
Track 27 not present in database
Track 28 not present in database
Track 29 not present in database
Track 30 not present in database
None of the tracks are present in the AccurateRip database
End of status report
 
DISC3
Треклист:
1. I've Come A Long Way 3:09
2. I'm In Love 2:35
3. Jealous Love 2:52
4. Don't Cry No More 2:18
5. That Kind Of Love 2:22
6. Bring It On Home To Me 3:11
7. Stagger Lee 2:25
8. Hello Sunshine 2:36
9. Deborah 3:11
10. Down By The Sea 2:58
11. I Found A True Love 2:26
12. Remember, I Been Good To You 3:02
13. Let's Get An Understanding 2:13
14. I'm A Midnight Mover 2:28
15. Trust Me 3:14
16. It's A Groove 2:53
17. A Man And A Half 2:55
18. Woman Likes To Hear That 2:57
19. Night Owl 2:25
20. Sit Down And Talk This Over 2:24
21. People Make The World 2:52
(Duane Allman plays guitar on tracks 3-22 through 4-1)
22. Hey Jude (w/Duane Allman-gtr) 4:11
23. Search Your Heart 2:50
24. Mini-Skirt Minnie 3:02
25. Back In Your Arms 3:00
26. Save Me 2:43
27. Toe Hold 2:52
28. My Own Style Of Loving 2:45
 
Лог создания рипа
Exact Audio Copy V0.99 prebeta 5 from 4. May 2009
EAC extraction logfile from 12. July 2010, 23:17
Wilson Pickett / Funky Midnight Mover: The Atlantic Studio Recordings 1962 - 1978 [Disc 3]
Used drive : HP DVD Writer 1040r Adapter: 1 ID: 0
Read mode : Secure
Utilize accurate stream : Yes
Defeat audio cache : Yes
Make use of C2 pointers : No
Read offset correction : 6
Overread into Lead-In and Lead-Out : No
Fill up missing offset samples with silence : Yes
Delete leading and trailing silent blocks : No
Null samples used in CRC calculations : Yes
Used interface : Native Win32 interface for Win NT & 2000
Used output format : User Defined Encoder
Selected bitrate : 1024 kBit/s
Quality : High
Add ID3 tag : No
Command line compressor : C:\Program Files\Exact Audio Copy\FLAC\FLAC.EXE
Additional command line options : -5 -V -T "ARTIST=%a" -T "TITLE=%t" -T "ALBUM=%g" -T "DATE=%y" -T "TRACKNUMBER=%n" -T "GENRE=%m" -T "COMMENT=EAC Flac 1.1.2 -5" %s
TOC of the extracted CD
Track | Start | Length | Start sector | End sector
---------------------------------------------------------
1 | 0:00.00 | 3:12.49 | 0 | 14448
2 | 3:12.49 | 2:32.40 | 14449 | 25888
3 | 5:45.14 | 2:48.26 | 25889 | 38514
4 | 8:33.40 | 2:16.00 | 38515 | 48714
5 | 10:49.40 | 2:20.16 | 48715 | 59230
6 | 13:09.56 | 3:08.40 | 59231 | 73370
7 | 16:18.21 | 2:21.55 | 73371 | 84000
8 | 18:40.01 | 2:34.35 | 84001 | 95585
9 | 21:14.36 | 3:08.70 | 95586 | 109755
10 | 24:23.31 | 2:56.51 | 109756 | 123006
11 | 27:20.07 | 2:24.44 | 123007 | 133850
12 | 29:44.51 | 2:59.55 | 133851 | 147330
13 | 32:44.31 | 2:11.61 | 147331 | 157216
14 | 34:56.17 | 2:26.11 | 157217 | 168177
15 | 37:22.28 | 3:12.26 | 168178 | 182603
16 | 40:34.54 | 2:52.03 | 182604 | 195506
17 | 43:26.57 | 2:50.74 | 195507 | 208330
18 | 46:17.56 | 2:53.49 | 208331 | 221354
19 | 49:11.30 | 2:22.42 | 221355 | 232046
20 | 51:33.72 | 2:20.74 | 232047 | 242620
21 | 53:54.71 | 2:48.52 | 242621 | 255272
22 | 56:43.48 | 4:08.45 | 255273 | 273917
23 | 60:52.18 | 2:46.06 | 273918 | 286373
24 | 63:38.24 | 3:00.02 | 286374 | 299875
25 | 66:38.26 | 2:56.56 | 299876 | 313131
26 | 69:35.07 | 2:37.17 | 313132 | 324923
27 | 72:12.24 | 2:48.63 | 324924 | 337586
28 | 75:01.12 | 2:40.24 | 337587 | 349610
Range status and errors
Selected range
Filename C:\Users\Mike3\Desktop\Wilson Pickett - Funky Midnight Mover - The Atlantic Studio Recordings 1962-1978\Disc 3\Wilson Pickett - Funky Midnight Mover The Atlantic Studio Recordings 1962 - 1978 [Disc 3].wav
Suspicious position 1:17:41
Peak level 99.8 %
Range quality 99.9 %
Copy CRC EBC01BD8
Copy finished
There were errors
AccurateRip summary
Track 1 not present in database
Track 2 not present in database
Track 3 not present in database
Track 4 not present in database
Track 5 not present in database
Track 6 not present in database
Track 7 not present in database
Track 8 not present in database
Track 9 not present in database
Track 10 not present in database
Track 11 not present in database
Track 12 not present in database
Track 13 not present in database
Track 14 not present in database
Track 15 not present in database
Track 16 not present in database
Track 17 not present in database
Track 18 not present in database
Track 19 not present in database
Track 20 not present in database
Track 21 not present in database
Track 22 not present in database
Track 23 not present in database
Track 24 not present in database
Track 25 not present in database
Track 26 not present in database
Track 27 not present in database
Track 28 not present in database
None of the tracks are present in the AccurateRip database
End of status report
 
DISC4
Треклист:
1. Born To Be Wild 2:48
2. Hey Joe 3:08
3. She Said Yes 3:19
4. Sweet Inspiration 2:59
5. Steal Away 3:53
6. Funky Way 2:34
7. You Keep Me Hangin' On 4:43
8. Now You See Me, Now You Don't 3:22
9. Cole, Cooke & Redding 3:55
10. Groovy Little Woman 2:43
11. This Old Town 3:28
12. It's Still Good 2:41
13. Sugar Sugar 3:00
14. Lord Pity Us All 3:24
15. Run Joey Run 2:43
16. Bumble Bee (Sting Me) 2:20
17. Days Go By 2:28
18. Ain't No Doubt About It 2:24
19. Come Right Here 2:40
20. Don't Let The Green Grass Fool You 2:50
21. Get Me Back On Time, Engine Number 9 6:28
22. International Playboy 2:31
23. Help The Needy 2:34
24. Fire And Water 3:39
25. (Your Love Has Brought Me) A Mighty Long Way 3:09
 
Лог создания рипа
Exact Audio Copy V0.99 prebeta 5 from 4. May 2009
EAC extraction logfile from 12. July 2010, 23:45
Wilson Pickett / Funky Midnight Mover: The Atlantic Studio Recordings 1962 - 1978 [Disc 4]
Used drive : HP DVD Writer 1040r Adapter: 1 ID: 0
Read mode : Secure
Utilize accurate stream : Yes
Defeat audio cache : Yes
Make use of C2 pointers : No
Read offset correction : 6
Overread into Lead-In and Lead-Out : No
Fill up missing offset samples with silence : Yes
Delete leading and trailing silent blocks : No
Null samples used in CRC calculations : Yes
Used interface : Native Win32 interface for Win NT & 2000
Used output format : User Defined Encoder
Selected bitrate : 1024 kBit/s
Quality : High
Add ID3 tag : No
Command line compressor : C:\Program Files\Exact Audio Copy\FLAC\FLAC.EXE
Additional command line options : -5 -V -T "ARTIST=%a" -T "TITLE=%t" -T "ALBUM=%g" -T "DATE=%y" -T "TRACKNUMBER=%n" -T "GENRE=%m" -T "COMMENT=EAC Flac 1.1.2 -5" %s
TOC of the extracted CD
Track | Start | Length | Start sector | End sector
---------------------------------------------------------
1 | 0:00.00 | 2:45.71 | 0 | 12445
2 | 2:45.71 | 3:04.70 | 12446 | 26315
3 | 5:50.66 | 3:15.21 | 26316 | 40961
4 | 9:06.12 | 2:55.30 | 40962 | 54116
5 | 12:01.42 | 3:49.50 | 54117 | 71341
6 | 15:51.17 | 2:30.12 | 71342 | 82603
7 | 18:21.29 | 4:55.56 | 82604 | 104784
8 | 23:17.10 | 2:35.74 | 104785 | 116483
9 | 25:53.09 | 3:49.48 | 116484 | 133706
10 | 29:42.57 | 2:39.23 | 133707 | 145654
11 | 32:22.05 | 3:24.35 | 145655 | 160989
12 | 35:46.40 | 2:38.31 | 160990 | 172870
13 | 38:24.71 | 2:58.03 | 172871 | 186223
14 | 41:22.74 | 3:20.22 | 186224 | 201245
15 | 44:43.21 | 2:37.22 | 201246 | 213042
16 | 47:20.43 | 2:14.49 | 213043 | 223141
17 | 49:35.17 | 2:24.01 | 223142 | 233942
18 | 51:59.18 | 2:20.16 | 233943 | 244458
19 | 54:19.34 | 2:37.60 | 244459 | 256293
20 | 56:57.19 | 2:47.62 | 256294 | 268880
21 | 59:45.06 | 6:25.49 | 268881 | 297804
22 | 66:10.55 | 2:29.12 | 297805 | 308991
23 | 68:39.67 | 2:33.28 | 308992 | 320494
24 | 71:13.20 | 3:29.51 | 320495 | 336220
25 | 74:42.71 | 2:57.01 | 336221 | 349496
Range status and errors
Selected range
Filename C:\Users\Mike3\Desktop\Wilson Pickett - Funky Midnight Mover - The Atlantic Studio Recordings 1962-1978\Disc 4\Wilson Pickett - Funky Midnight Mover The Atlantic Studio Recordings 1962 - 1978 [Disc 4].wav
Peak level 99.8 %
Range quality 100.0 %
Copy CRC FCDD586D
Copy OK
No errors occurred
AccurateRip summary
Track 1 not present in database
Track 2 not present in database
Track 3 not present in database
Track 4 not present in database
Track 5 not present in database
Track 6 not present in database
Track 7 not present in database
Track 8 not present in database
Track 9 not present in database
Track 10 not present in database
Track 11 not present in database
Track 12 not present in database
Track 13 not present in database
Track 14 not present in database
Track 15 not present in database
Track 16 not present in database
Track 17 not present in database
Track 18 not present in database
Track 19 not present in database
Track 20 not present in database
Track 21 not present in database
Track 22 not present in database
Track 23 not present in database
Track 24 not present in database
Track 25 not present in database
None of the tracks are present in the AccurateRip database
End of status report
 
DISC5
Треклист:
1. Covering The Same Old Ground 3:14
2. Don't Knock My Love (2007 Remastered Version) 2:23
3. Don't Knock My Love 4:05
4. Hot Love 3:12
5. Not Enough Love To Satisfy 3:00
6. You Can't Judge A Book By It's Cover 2:52
7. Pledging My Love 3:21
8. Mama Told Me Not To Come 2:52
9. Call My Name, I'll Be There 2:26
10. Woman Let Me Down Home 3:03
11. One Step Away 3:49
12. Funk Factory 2:56
13. Love Dagger 2:57
14. Time To Let The Sun Shine On Me 4:08
15. Who Turned You On 3:42
16. Dance You Down 3:41
17. Dance With Me 4:55
18. She's So Tight 3:36
19. The Night We Called It A Day 4:11
20. Hold On To Your Hiney 3:49
21. Groovin' 3:52
22. Lay Me Like You Hate Me 3:57
23. A Funky Situation 3:56
 
Лог создания рипа
Exact Audio Copy V0.99 prebeta 5 from 4. May 2009
EAC extraction logfile from 13. July 2010, 0:10
Wilson Pickett / Funky Midnight Mover: The Atlantic Studio Recordings 1962 - 1978 [Disc 5]
Used drive : HP DVD Writer 1040r Adapter: 1 ID: 0
Read mode : Secure
Utilize accurate stream : Yes
Defeat audio cache : Yes
Make use of C2 pointers : No
Read offset correction : 6
Overread into Lead-In and Lead-Out : No
Fill up missing offset samples with silence : Yes
Delete leading and trailing silent blocks : No
Null samples used in CRC calculations : Yes
Used interface : Native Win32 interface for Win NT & 2000
Used output format : User Defined Encoder
Selected bitrate : 1024 kBit/s
Quality : High
Add ID3 tag : No
Command line compressor : C:\Program Files\Exact Audio Copy\FLAC\FLAC.EXE
Additional command line options : -5 -V -T "ARTIST=%a" -T "TITLE=%t" -T "ALBUM=%g" -T "DATE=%y" -T "TRACKNUMBER=%n" -T "GENRE=%m" -T "COMMENT=EAC Flac 1.1.2 -5" %s
TOC of the extracted CD
Track | Start | Length | Start sector | End sector
---------------------------------------------------------
1 | 0:00.00 | 3:23.57 | 0 | 15281
2 | 3:23.57 | 2:21.73 | 15282 | 25929
3 | 5:45.55 | 4:03.42 | 25930 | 44196
4 | 9:49.22 | 3:01.35 | 44197 | 57806
5 | 12:50.57 | 3:03.54 | 57807 | 71585
6 | 15:54.36 | 2:54.49 | 71586 | 84684
7 | 18:49.10 | 3:22.69 | 84685 | 99903
8 | 22:12.04 | 2:37.02 | 99904 | 111680
9 | 24:49.06 | 2:26.10 | 111681 | 122640
10 | 27:15.16 | 3:06.51 | 122641 | 136641
11 | 30:21.67 | 3:56.14 | 136642 | 154355
12 | 34:18.06 | 2:55.56 | 154356 | 167536
13 | 37:13.62 | 2:53.15 | 167537 | 180526
14 | 40:07.02 | 4:33.28 | 180527 | 201029
15 | 44:40.30 | 3:38.20 | 201030 | 217399
16 | 48:18.50 | 3:32.73 | 217400 | 233372
17 | 51:51.48 | 4:47.52 | 233373 | 254949
18 | 56:39.25 | 3:32.29 | 254950 | 270878
19 | 60:11.54 | 4:08.69 | 270879 | 289547
20 | 64:20.48 | 3:45.45 | 289548 | 306467
21 | 68:06.18 | 3:49.47 | 306468 | 323689
22 | 71:55.65 | 3:52.69 | 323690 | 341158
23 | 75:48.59 | 3:54.45 | 341159 | 358753
Range status and errors
Selected range
Filename C:\Users\Mike3\Desktop\Wilson Pickett - Funky Midnight Mover - The Atlantic Studio Recordings 1962-1978\Disc 5\Wilson Pickett - Funky Midnight Mover The Atlantic Studio Recordings 1962 - 1978 [Disc 5].wav
Suspicious position 1:17:41
Peak level 99.8 %
Range quality 99.9 %
Copy CRC 4391C1D5
Copy finished
There were errors
AccurateRip summary
Track 1 not present in database
Track 2 not present in database
Track 3 not present in database
Track 4 not present in database
Track 5 not present in database
Track 6 not present in database
Track 7 not present in database
Track 8 not present in database
Track 9 not present in database
Track 10 not present in database
Track 11 not present in database
Track 12 not present in database
Track 13 not present in database
Track 14 not present in database
Track 15 not present in database
Track 16 not present in database
Track 17 not present in database
Track 18 not present in database
Track 19 not present in database
Track 20 not present in database
Track 21 not present in database
Track 22 not present in database
Track 23 not present in database
None of the tracks are present in the AccurateRip database
End of status report
 
DISC6
Треклист:
(Recording Dates are given. All tracks previously unissued except tracks 4, 5 & 14)
1. Hello Sunshine (alt. version w/out overdub - 7/1-3/67) 2:46
2. Pray For The Rain (Take 1 - scratch vocals - 10/27/69) 3:43
3. Groovy Little Woman (Take 12 - alt. version w/out overdub - 11/19/69) 2:57
4. Let It Come Naturally - 11/19/69) 2:20
5. Believe I'll Shout (Gospel Jam - 11/19/69) 4:16
6. Get Me Back On Time, Engine Number 9 (Takes 1 & 2 - 1/14/70) 3:46
7. Rock Of Ages (6/21/71) 4:58
8. Many Roads To Travel (6/21/71) 6:44
9. I Hope She'll Be Happier With Him (date ?) 5:15
10. Heaven (2/23/72) 6:40
11. Can't Stop A Man In Love (alt. version - 2/23/72) 3:32
12. If You Need Me (2nd version - 2/23/72) 5:41
13. Don't Forget The Bridge (2/23/72) 2:48
14. International Playboy (2nd Single Version - 1/14/70-2/24/70) 2:33
15. Talk Jive (1977) 3:39
16. I'll Be There (1977) 4:06
17. Groove City (date ?) 6:03
18. Superstar (date ?) 5:33
 
Лог создания рипа
Exact Audio Copy V0.99 prebeta 5 from 4. May 2009
EAC extraction logfile from 13. July 2010, 19:26
Wilson Pickett / Funky Midnight Mover: The Atlantic Studio Recordings (1962-1978) [Disc 6]
Used drive : HP DVD Writer 1040r Adapter: 1 ID: 0
Read mode : Secure
Utilize accurate stream : Yes
Defeat audio cache : Yes
Make use of C2 pointers : No
Read offset correction : 6
Overread into Lead-In and Lead-Out : No
Fill up missing offset samples with silence : Yes
Delete leading and trailing silent blocks : No
Null samples used in CRC calculations : Yes
Used interface : Native Win32 interface for Win NT & 2000
Used output format : User Defined Encoder
Selected bitrate : 1024 kBit/s
Quality : High
Add ID3 tag : No
Command line compressor : C:\Program Files\Exact Audio Copy\FLAC\FLAC.EXE
Additional command line options : -5 -V -T "ARTIST=%a" -T "TITLE=%t" -T "ALBUM=%g" -T "DATE=%y" -T "TRACKNUMBER=%n" -T "GENRE=%m" -T "COMMENT=EAC Flac 1.1.2 -5" %s
TOC of the extracted CD
Track | Start | Length | Start sector | End sector
---------------------------------------------------------
1 | 0:00.00 | 2:44.16 | 0 | 12315
2 | 2:44.16 | 3:26.49 | 12316 | 27814
3 | 6:10.65 | 2:43.29 | 27815 | 40068
4 | 8:54.19 | 2:06.61 | 40069 | 49579
5 | 11:01.05 | 4:01.36 | 49580 | 67690
6 | 15:02.41 | 4:03.45 | 67691 | 85960
7 | 19:06.11 | 4:11.66 | 85961 | 104851
8 | 23:18.02 | 6:31.33 | 104852 | 134209
9 | 29:49.35 | 5:03.74 | 134210 | 157008
10 | 34:53.34 | 6:31.22 | 157009 | 186355
11 | 41:24.56 | 3:25.37 | 186356 | 201767
12 | 44:50.18 | 5:36.25 | 201768 | 226992
13 | 50:26.43 | 3:22.39 | 226993 | 242181
14 | 53:49.07 | 2:35.09 | 242182 | 253815
15 | 56:24.16 | 3:34.58 | 253816 | 269923
16 | 59:58.74 | 4:02.73 | 269924 | 288146
17 | 64:01.72 | 5:59.73 | 288147 | 315144
18 | 70:01.70 | 5:27.73 | 315145 | 339742
Range status and errors
Selected range
Filename C:\Users\Mike3\Desktop\Wilson Pickett - Funky Midnight Mover - The Atlantic Studio Recordings 1962-1978\Disc 6\Wilson Pickett - Funky Midnight Mover The Atlantic Studio Recordings (1962-1978) [Disc 6].wav
Peak level 99.8 %
Range quality 100.0 %
Copy CRC B6676598
Copy OK
No errors occurred
AccurateRip summary
Track 1 not present in database
Track 2 not present in database
Track 3 not present in database
Track 4 not present in database
Track 5 not present in database
Track 6 not present in database
Track 7 not present in database
Track 8 not present in database
Track 9 not present in database
Track 10 not present in database
Track 11 not present in database
Track 12 not present in database
Track 13 not present in database
Track 14 not present in database
Track 15 not present in database
Track 16 not present in database
Track 17 not present in database
Track 18 not present in database
None of the tracks are present in the AccurateRip database
End of status report
 
Об альбоме (сборнике)
Приватный:
Нет (DHT включён)
Размер:
3.66 Гб (3,926,344,296 байт) » файлов: 294
Участники:
0 раздают, 0 качают (0 участников всего)
Внешние участники:
5 раздают, 2 качают (7 участников всего) [ Обновить ]
Есть вопросы - пишите личное сообщение пользователю M0p94ok.
13:17
88
Нет комментариев. Ваш будет первым!