Поиск

(Soul, Vocal Jazz) [CD] Brook Benton - Songs I Love To Sing (1960) - 2003, FLAC (tracks+.cue), lossless

(Soul, Vocal Jazz) [CD] Brook Benton - Songs I Love To Sing (1960) - 2003, FLAC (tracks+.cue), lossless
Треклист:
Brook Benton - Songs I Love To Sing (1960) Жанр: Soul, Vocal Jazz
Носитель: CD
Год издания: 2003
Издатель (лейбл): Verve/Mercury
Номер по каталогу: B0000755-02/SR 60602
Аудиокодек: FLAC (*.flac)
Тип рипа: tracks+.cue
Битрейт аудио: lossless
Продолжительность: 37:08
Источник (релизер): TestTickles
Наличие сканов в содержимом раздачи: да
Треклист:
01. Moonlight In Vermont (3:40)
02. Its Been A Long Long Time (2:29)
03. Lover Come Back To Me (3:08)
04. If You Are But A Dream (3:10)
05. Why Try To Change Me (2:58)
06. September Song (3:07)
07. Oh! What It Seemed To Be (3:17)
08. Baby Won't You Please Come Home (2:58)
09. They Can't Take That Away From Me (2:58)
10. I'll Be Around (2:29)
11. I Don't Know Enough About You (4:30)
12. Fools Rush In (Where Angels Fear To Tread) (2:26)
 
 
Об альбоме (сборнике)
Songs I Love To Sing is the 1960 album by singer Brook Benton. The album was one of three he released in 1960, all released on Mercury. The CD was released by the Verve Music Group on 23 September, 2003.
Songs I Love To Sing by Brook Benton is a gorgeous array of 12 standards as interpreted by Benton and his collaborator, Clyde Otis. He does not sound like the Benton of his last hit, "Rainy Night in Georgia"; rather, the singer goes to the place where Nat King Cole reigned supreme. He sounds unbelievably like Cole on some of these tunes, the phrasing and vocal texture so similar it is amazing, perfectly surrounded by superb orchestration. The Rube Bloom/Johnny Mercer classic that charted for Glenn Miller two decades before this rendition, "Fools Rush In (Where Angels Fear to Tread)," went Top 25 in 1960 from Songs I Love To Sing and is indicative of the lush sounds found on this wonderful disc. Great singers from every era always have the urge to emulate their idols; Rod Stewart sprinkled his favorite songs over various albums, culminating in his 2002 concept disc It Had to Be You…The Great American Songbook. Like Stewart, Brook Benton was a singer/songwriter, though he was in a genre where the Frank Sinatra and Johnny Mathis types let others write the tunes they would bring to life. In this setting, Benton hits a home run; these recordings are a stunning display of his vocal prowess and understanding of the material. "September Song" should have been licensed for one of the Kurt Weill tribute albums, a decidedly different version than what Lou Reed uncovered for the Lost in the Stars: The Music of Kurt Weill '80s compilation. The uncredited and worthwhile liner notes on an LP jacket which has the singer leaning on a large gold harp give some insight; Benton got the idea for this collection while convalescing in the hospital. Clyde Otis supervised the sessions and the orchestration, and it is all very beautiful, from the Gershwins' "They Can't Take That Away From Me" to Peggy Lee's "I Don't Know Enough About You." The album concludes with the hit "Fools Rush In (Where Angels Fear to Tread)," which Rick Nelson brought to the Top 15 three years after this, though there's no comparison whatsoever – Benton's rendition is classic, as is this very special record.

 
Лог создания рипа
EAC extraction logfile from 10. September 2006, 20:28 for CD
Brook Benton / Songs I Love To Sing
Used drive : LITE-ON DVDRW SOHW-1633S Adapter: 0 ID: 0
Read mode : Secure with NO C2, accurate stream, disable cache
Read offset correction : 12
Overread into Lead-In and Lead-Out : No
Used output format : Internal WAV Routines
44.100 Hz; 16 Bit; Stereo
Other options :
Fill up missing offset samples with silence : Yes
Delete leading and trailing silent blocks : No
Installed external ASPI interface
Track 1
Filename D:\FLAC\Brook Benton - Songs I Love To Sing (1960) [FLAC] {2003 Verve Music Group}\01 - Moonlight In Vermont.wav
Pre-gap length 0:00:02.00
Peak level 95.5 %
Track quality 100.0 %
Test CRC 2C3C011D
Copy CRC 2C3C011D
Copy OK
Track 2
Filename D:\FLAC\Brook Benton - Songs I Love To Sing (1960) [FLAC] {2003 Verve Music Group}\02 - Its Been A Long Long Time.wav
Pre-gap length 0:00:04.41
Peak level 90.5 %
Track quality 100.0 %
Test CRC DC2B5438
Copy CRC DC2B5438
Copy OK
Track 3
Filename D:\FLAC\Brook Benton - Songs I Love To Sing (1960) [FLAC] {2003 Verve Music Group}\03 - Lover Come Back To Me.wav
Pre-gap length 0:00:03.86
Peak level 100.0 %
Track quality 99.9 %
Test CRC 0D4C1059
Copy CRC 0D4C1059
Copy OK
Track 4
Filename D:\FLAC\Brook Benton - Songs I Love To Sing (1960) [FLAC] {2003 Verve Music Group}\04 - If You Are But A Dream.wav
Pre-gap length 0:00:02.94
Peak level 100.0 %
Track quality 100.0 %
Test CRC F51D4D73
Copy CRC F51D4D73
Copy OK
Track 5
Filename D:\FLAC\Brook Benton - Songs I Love To Sing (1960) [FLAC] {2003 Verve Music Group}\05 - Why Try To Change Me.wav
Pre-gap length 0:00:03.06
Peak level 91.7 %
Track quality 99.9 %
Test CRC 74C1049C
Copy CRC 74C1049C
Copy OK
Track 6
Filename D:\FLAC\Brook Benton - Songs I Love To Sing (1960) [FLAC] {2003 Verve Music Group}\06 - September Song.wav
Pre-gap length 0:00:03.46
Peak level 100.0 %
Track quality 100.0 %
Test CRC 361065BA
Copy CRC 361065BA
Copy OK
Track 7
Filename D:\FLAC\Brook Benton - Songs I Love To Sing (1960) [FLAC] {2003 Verve Music Group}\07 - Oh! What It Seemed To Be.wav
Pre-gap length 0:00:03.88
Peak level 100.0 %
Track quality 100.0 %
Test CRC A164A4AA
Copy CRC A164A4AA
Copy OK
Track 8
Filename D:\FLAC\Brook Benton - Songs I Love To Sing (1960) [FLAC] {2003 Verve Music Group}\08 - Baby Won't You Please Come Home.wav
Pre-gap length 0:00:04.74
Peak level 100.0 %
Track quality 100.0 %
Test CRC 9C770C2E
Copy CRC 9C770C2E
Copy OK
Track 9
Filename D:\FLAC\Brook Benton - Songs I Love To Sing (1960) [FLAC] {2003 Verve Music Group}\09 - They Can't Take That Away From Me.wav
Pre-gap length 0:00:03.58
Peak level 100.0 %
Track quality 99.9 %
Test CRC AE3EDC5F
Copy CRC AE3EDC5F
Copy OK
Track 10
Filename D:\FLAC\Brook Benton - Songs I Love To Sing (1960) [FLAC] {2003 Verve Music Group}\10 - I'll Be Around.wav
Pre-gap length 0:00:03.26
Peak level 100.0 %
Track quality 100.0 %
Test CRC C3376A45
Copy CRC C3376A45
Copy OK
Track 11
Filename D:\FLAC\Brook Benton - Songs I Love To Sing (1960) [FLAC] {2003 Verve Music Group}\11 - I Don't Know Enough About You.wav
Pre-gap length 0:00:04.36
Peak level 99.5 %
Track quality 100.0 %
Test CRC 6BD63D8A
Copy CRC 6BD63D8A
Copy OK
Track 12
Filename D:\FLAC\Brook Benton - Songs I Love To Sing (1960) [FLAC] {2003 Verve Music Group}\12 - Fools Rush In (Where Angels Fear To Tread).wav
Pre-gap length 0:00:04.26
Peak level 100.0 %
Track quality 100.0 %
Test CRC 0552C0ED
Copy CRC 0552C0ED
Copy OK
No errors occured
End of status report
 
Содержание индексной карты (.CUE)
REM GENRE R&B
REM DATE 1959
REM DISCID 9B08B40C
REM COMMENT "ExactAudioCopy v0.95b4"
PERFORMER "Brook Benton"
TITLE "Songs I Love To Sing"
FILE "01 - Moonlight In Vermont.wav" WAVE
TRACK 01 AUDIO
TITLE "Moonlight In Vermont"
PERFORMER "Brook Benton"
INDEX 01 00:00:00
TRACK 02 AUDIO
TITLE "Its Been A Long Long Time"
PERFORMER "Brook Benton"
INDEX 00 03:36:02
FILE "02 - Its Been A Long Long Time.wav" WAVE
INDEX 01 00:00:00
TRACK 03 AUDIO
TITLE "Lover Come Back To Me"
PERFORMER "Brook Benton"
INDEX 00 02:25:01
FILE "03 - Lover Come Back To Me.wav" WAVE
INDEX 01 00:00:00
TRACK 04 AUDIO
TITLE "If You Are But A Dream"
PERFORMER "Brook Benton"
INDEX 00 03:04:73
FILE "04 - If You Are But A Dream.wav" WAVE
INDEX 01 00:00:00
TRACK 05 AUDIO
TITLE "Why Try To Change Me"
PERFORMER "Brook Benton"
INDEX 00 03:07:07
FILE "05 - Why Try To Change Me.wav" WAVE
INDEX 01 00:00:00
TRACK 06 AUDIO
TITLE "September Song"
PERFORMER "Brook Benton"
INDEX 00 02:54:14
FILE "06 - September Song.wav" WAVE
INDEX 01 00:00:00
TRACK 07 AUDIO
TITLE "Oh! What It Seemed To Be"
PERFORMER "Brook Benton"
FLAGS DCP
INDEX 00 03:02:72
FILE "07 - Oh! What It Seemed To Be.wav" WAVE
INDEX 01 00:00:00
TRACK 08 AUDIO
TITLE "Baby Won't You Please Come Home"
PERFORMER "Brook Benton"
INDEX 00 03:12:21
FILE "08 - Baby Won't You Please Come Home.wav" WAVE
INDEX 01 00:00:00
TRACK 09 AUDIO
TITLE "They Can't Take That Away From Me"
PERFORMER "Brook Benton"
INDEX 00 02:54:12
FILE "09 - They Can't Take That Away From Me.wav" WAVE
INDEX 01 00:00:00
TRACK 10 AUDIO
TITLE "I'll Be Around"
PERFORMER "Brook Benton"
INDEX 00 02:54:29
FILE "10 - I'll Be Around.wav" WAVE
INDEX 01 00:00:00
TRACK 11 AUDIO
TITLE "I Don't Know Enough About You"
PERFORMER "Brook Benton"
INDEX 00 02:24:17
FILE "11 - I Don't Know Enough About You.wav" WAVE
INDEX 01 00:00:00
TRACK 12 AUDIO
TITLE "Fools Rush In (Where Angels Fear To Tread)"
PERFORMER "Brook Benton"
INDEX 00 04:25:35
FILE "12 - Fools Rush In (Where Angels Fear To Tread).wav" WAVE
INDEX 01 00:00:00
Приватный:
Нет (DHT включён)
Размер:
223.48 Мб (234,335,965 байт) » файлов: 21
Участники:
0 раздают, 0 качают (0 участников всего)
Внешние участники:
2 раздают, 1 качают (3 участников всего) [ Обновить ]
Есть вопросы - пишите личное сообщение пользователю M0p94ok.
13:57
69
Нет комментариев. Ваш будет первым!