Поиск

(Soul) [CD] Barry White - The Man (1978) - 1996, FLAC (image+.cue), lossless

(Soul) [CD] Barry White - The Man (1978) - 1996, FLAC (image+.cue), lossless
Треклист:
Barry White - The Man (1978) Жанр: Soul
Носитель: CD
Год издания: 1996
Издатель (лейбл): Mercury Records
Номер по каталогу: 812 273-2
Аудиокодек: FLAC (*.flac)
Тип рипа: image+.cue
Битрейт аудио: lossless
Продолжительность: 46:37
Источник (релизер): BlondStyle
Наличие сканов в содержимом раздачи: да
Треклист:
01. Look At Her (6:21)
02. Your Sweetness Is My Weakness (8:11)
03. Sha La La Means I Love You (7:32)
04. September When I First Met You (6:55)
05. It's Only Love Doing Its Thing (3:57)
06. Just The Way You Are (7:11)
07. Early Years (6:29)
 
 
AllMusic Review by Jason Elias
1977's Barry White Sings to Someone You Love put him back on the right side of the charts. He shed the pomposity that landed him in the cutout bins by as early as 1976. In contrast to this album's predecessor, Barry White Sings for Someone You Love, there's more of a balance between the dance tracks and ballads. "Look at Her," "You're Sweetness Is My Weakness," and "Sha La La Means I Love You" all employ Latin flourishes and tough horn charts. Although his Latin seemed closer to Ricky Ricardo than Tito Puente, White's good spirits and the crack backing band make it all worthwhile. The sensual "It's Only Love Doing Its Thing" does its business in under five minutes with White saying, "Let me put my hand right there/Lord have mercy." On the ballads he seems a little more reflective than usual. As they somewhat diminished Barry White Sings for Someone You Love, the ballads enrich The Man. On his cover of Billy Joel's "Just the Way You Are," he gives the lyrics complete seriousness and somehow makes them bittersweet. "Early Years" has a flamenco-styled guitar and an autumnal arrangement. The track gives him to a depth beyond "relationships," even though it was clear from his disconsolate delivery that his reminiscing didn't exactly make him feel any better. With such rich and varied songs, The Man might be the only album one might need from Barry White, but it will make you seek out even more of his catalogue.

 
Лог создания рипа
Exact Audio Copy V1.0 beta 3 from 29. August 2011
EAC extraction logfile from 1. March 2014, 10:56
Barry White / The Man
Used drive : hp BD ROM BC-5550H Adapter: 2 ID: 0
Read mode : Secure
Utilize accurate stream : Yes
Defeat audio cache : Yes
Make use of C2 pointers : No
Read offset correction : 48
Overread into Lead-In and Lead-Out : No
Fill up missing offset samples with silence : Yes
Delete leading and trailing silent blocks : No
Null samples used in CRC calculations : Yes
Used interface : Native Win32 interface for Win NT & 2000
Used output format : Internal WAV Routines
Sample format : 44.100 Hz; 16 Bit; Stereo
TOC of the extracted CD
Track | Start | Length | Start sector | End sector
---------------------------------------------------------
1 | 0:00.00 | 6:21.22 | 0 | 28596
2 | 6:21.22 | 8:10.60 | 28597 | 65406
3 | 14:32.07 | 7:32.23 | 65407 | 99329
4 | 22:04.30 | 6:55.15 | 99330 | 130469
5 | 28:59.45 | 3:57.32 | 130470 | 148276
6 | 32:57.02 | 7:11.03 | 148277 | 180604
7 | 40:08.05 | 6:28.57 | 180605 | 209761
Range status and errors
Selected range
Filename C:\EAC\BW-TM_Blq\Barry White - The Man\Barry White - The Man.wav
Peak level 100.0 %
Extraction speed 14.9 X
Range quality 100.0 %
Test CRC DBF5B661
Copy CRC DBF5B661
Copy OK
No errors occurred
AccurateRip summary
Track 1 accurately ripped (confidence 3) [331CC939] (AR v1)
Track 2 accurately ripped (confidence 4) [F4702EDF] (AR v1)
Track 3 accurately ripped (confidence 4) [BA3E3ADF] (AR v1)
Track 4 accurately ripped (confidence 4) [8ADF6110] (AR v1)
Track 5 accurately ripped (confidence 4) [906DAD59] (AR v1)
Track 6 accurately ripped (confidence 4) [88B13427] (AR v1)
Track 7 accurately ripped (confidence 4) [8C4DB321] (AR v1)
All tracks accurately ripped
End of status report
 
Содержание индексной карты (.CUE)
REM GENRE R&B
REM DATE 1978
REM DISCID 5D0AEC07
REM COMMENT "ExactAudioCopy v1.0b3"
PERFORMER "Barry White"
TITLE "The Man"
FILE "Barry White - The Man.flac" WAVE
TRACK 01 AUDIO
TITLE "Look At Her"
PERFORMER "Barry White"
INDEX 01 00:00:00
TRACK 02 AUDIO
TITLE "Your Sweetness Is My Weakness"
PERFORMER "Barry White"
INDEX 00 06:18:47
INDEX 01 06:21:22
TRACK 03 AUDIO
TITLE "Sha La La Means I Love You"
PERFORMER "Barry White"
INDEX 00 14:29:35
INDEX 01 14:32:07
TRACK 04 AUDIO
TITLE "September When I First Met You"
PERFORMER "Barry White"
INDEX 00 22:01:60
INDEX 01 22:04:30
TRACK 05 AUDIO
TITLE "It's Only Love Doing Its Thing"
PERFORMER "Barry White"
INDEX 00 28:56:72
INDEX 01 28:59:45
TRACK 06 AUDIO
TITLE "Just The Way You Are"
PERFORMER "Barry White"
INDEX 00 32:54:22
INDEX 01 32:57:02
TRACK 07 AUDIO
TITLE "Early Years"
PERFORMER "Barry White"
INDEX 00 40:05:30
INDEX 01 40:08:05
Приватный:
Нет (DHT включён)
Размер:
310.33 Мб (325,400,971 байт) » файлов: 9
Участники:
0 раздают, 0 качают (0 участников всего)
Внешние участники:
5 раздают, 1 качают (6 участников всего) [ Обновить ]
Есть вопросы - пишите личное сообщение пользователю M0p94ok.
13:57
175
Нет комментариев. Ваш будет первым!