Поиск

(Funk, Soul, R&B) [CD] The Gap Band - The Gap Band IV - 1982, FLAC (tracks+.cue), lossless

(Funk, Soul, R&B) [CD] The Gap Band - The Gap Band IV - 1982, FLAC (tracks+.cue), lossless
Треклист:
The Gap Band - Gap Band IV Жанр: Funk, Soul, R&B
Носитель: CD
Год издания: 1982
Издатель (лейбл): Mercury
Номер по каталогу: 822 794-2
Аудиокодек: FLAC (*.flac)
Тип рипа: tracks+.cue
Битрейт аудио: lossless
Продолжительность: 42:09
Rip by JET 1
Наличие сканов в содержимом раздачи: да
Треклист:
01. Early In The Morning (6:30)
02. Seasons No Reason To Change (4:49)
03. Lonely Like Me (5:22)
04. Outstanding (3:19)
05. Stay With Me (4:11)
06. You Dropped A Bomb On Me (5:13)
07. I Can't Get Over You (6:03)
08. Talkin' Back (6:43)
 
 
Об альбоме (сборнике)
THE GAP BAND enjoyed huge success throughout the 70s and 80s with their unique sound and contribution to the Funk scene. Formed in 1967 in their hometown of Tulsa, Oklahoma, brothers Charlie, Ronnie and Robert Wilson first went by the name Greenwood, Archer and Pine Street Band, later shortening the name to THE GAP BAND in 1973. LA Producer, Lonnie Simmons, signed them to his label, Total Experience Records, setting in motion what would be the start of a long and prosperous relationship between THE GAP BAND and Simmons.
The group scored many notable hits in the late 1970’s and early 1980’s including ‘Shake’ (R&B #4), ‘I Don’t Believe You Want To Get Up And Dance (Oops!, Up Side Your Head)’ (R&B #4) and ‘Burn Rubber (Why You Wanna Hurt Me)’ (R&B #1) before releasing this, their most successful album, GAP BAND IV, in 1982. Charting at #1 R&B and #14 Pop GAP BAND IV achieved platinum status and provided two #1 R&B hit singles.
The first single and opening track from the album was ‘Early In The Morning,’ a full on, uplifting, electro funk groove with a superb fuzzed up bassline and singer Charlie Wilson’s arresting vocals. Peaking at #1 R&B and remaining on the R&B singles chart for an unprecedented 24 weeks, ‘Early In The Morning’ set the tone for the subsequent singles. ‘You Dropped A Bomb On Me,’ another funky dance floor number with an equally superb bassline, peaked at #2 R&B before third single ‘Outstanding,’ a very soulful mid-tempo groove with beautiful harmonies, fluid piano parts and interesting percussion matched ‘Early In The Morning’ by reaching #1 R&B and also staying on the chart for 24 weeks.

 
Лог создания рипа
Exact Audio Copy V1.3 from 2. September 2016
EAC extraction logfile from 26. May 2017, 23:33
The Gap Band / IV
Used drive : GENERIC CDRCB05 Adapter: 1 ID: 1
Read mode : Secure
Utilize accurate stream : Yes
Defeat audio cache : Yes
Make use of C2 pointers : No
Read offset correction : 102
Overread into Lead-In and Lead-Out : No
Fill up missing offset samples with silence : Yes
Delete leading and trailing silent blocks : No
Null samples used in CRC calculations : Yes
Used interface : Native Win32 interface for Win NT & 2000
Gap handling : Appended to previous track
Used output format : User Defined Encoder
Selected bitrate : 768 kBit/s
Quality : High
Add ID3 tag : No
Command line compressor : C:\Program Files (x86)\Exact Audio Copy\FLAC\FLAC.EXE
Additional command line options : -6 -V -T "ARTIST=%artist%" -T "TITLE=%title%" -T "ALBUM=%albumtitle%" -T "DATE=%year%" -T "TRACKNUMBER=%tracknr%" -T "GENRE=%genre%" -T "COMMENT=%comment%" -T "BAND=%albuminterpret%" -T "ALBUMARTIST=%albuminterpret%" -T "COMPOSER=%composer%" %haslyrics%--tag-from-file=LYRICS="%lyricsfile%"%haslyrics% -T "DISCNUMBER=%cdnumber%" -T "TOTALDISCS=%totalcds%" -T "TOTALTRACKS=%numtracks%" %hascover%--picture="%coverfile%"%hascover% %source% -o %dest%
TOC of the extracted CD
Track | Start | Length | Start sector | End sector
---------------------------------------------------------
1 | 0:00.00 | 6:30.00 | 0 | 29249
2 | 6:30.00 | 4:49.03 | 29250 | 50927
3 | 11:19.03 | 5:21.40 | 50928 | 75042
4 | 16:40.43 | 3:18.60 | 75043 | 89952
5 | 19:59.28 | 4:11.10 | 89953 | 108787
6 | 24:10.38 | 5:12.67 | 108788 | 132254
7 | 29:23.30 | 6:02.63 | 132255 | 159467
8 | 35:26.18 | 6:42.42 | 159468 | 189659
Track 1
Filename L:\POST\The Gap Band ‎- Gap Band IV (1982)\01 Early In The Morning.wav
Pre-gap length 0:00:02.00
Peak level 89.1 %
Extraction speed 2.6 X
Track quality 100.0 %
Test CRC BFF69DFC
Copy CRC BFF69DFC
Accurately ripped (confidence 9) [DD767B7D] (AR v2)
Copy OK
Track 2
Filename L:\POST\The Gap Band ‎- Gap Band IV (1982)\02 Seasons No Reason To Change.wav
Pre-gap length 0:00:01.12
Peak level 93.7 %
Extraction speed 2.8 X
Track quality 100.0 %
Test CRC 265F1811
Copy CRC 265F1811
Accurately ripped (confidence 9) [F6334A9E] (AR v2)
Copy OK
Track 3
Filename L:\POST\The Gap Band ‎- Gap Band IV (1982)\03 Lonely Like Me.wav
Pre-gap length 0:00:00.50
Peak level 93.7 %
Extraction speed 3.1 X
Track quality 100.0 %
Test CRC B7C0E365
Copy CRC B7C0E365
Accurately ripped (confidence 9) [CDB45FD2] (AR v2)
Copy OK
Track 4
Filename L:\POST\The Gap Band ‎- Gap Band IV (1982)\04 Outstanding.wav
Pre-gap length 0:00:02.08
Peak level 89.2 %
Extraction speed 3.1 X
Track quality 100.0 %
Test CRC 7A6EB38D
Copy CRC 7A6EB38D
Accurately ripped (confidence 9) [BB49F35A] (AR v2)
Copy OK
Track 5
Filename L:\POST\The Gap Band ‎- Gap Band IV (1982)\05 Stay With Me.wav
Pre-gap length 0:00:01.60
Peak level 89.9 %
Extraction speed 3.4 X
Track quality 100.0 %
Test CRC FD506393
Copy CRC FD506393
Accurately ripped (confidence 9) [09BA9B0B] (AR v2)
Copy OK
Track 6
Filename L:\POST\The Gap Band ‎- Gap Band IV (1982)\06 You Dropped A Bomb On Me.wav
Pre-gap length 0:00:01.23
Peak level 94.1 %
Extraction speed 3.6 X
Track quality 100.0 %
Test CRC 89889E12
Copy CRC 89889E12
Accurately ripped (confidence 9) [B5C4AA1D] (AR v2)
Copy OK
Track 7
Filename L:\POST\The Gap Band ‎- Gap Band IV (1982)\07 I Can't Get Over You.wav
Pre-gap length 0:00:02.20
Peak level 88.8 %
Extraction speed 3.6 X
Track quality 99.9 %
Test CRC CD2E7A2E
Copy CRC CD2E7A2E
Accurately ripped (confidence 9) [C00357B4] (AR v2)
Copy OK
Track 8
Filename L:\POST\The Gap Band ‎- Gap Band IV (1982)\08 Talkin' Back.wav
Peak level 93.9 %
Extraction speed 4.2 X
Track quality 100.0 %
Test CRC 6EAD5D2D
Copy CRC 6EAD5D2D
Accurately ripped (confidence 9) [277FE594] (AR v2)
Copy OK
All tracks accurately ripped
No errors occurred
End of status report
---- CUETools DB Plugin V2.1.6
[CTDB TOCID: .P.pEVqcGeHhRVeuOft.FRau8Fc-] found
Submit result: .P.pEVqcGeHhRVeuOft.FRau8Fc- has been confirmed
Track | CTDB Status
1 | (15/15) Accurately ripped
2 | (15/15) Accurately ripped
3 | (15/15) Accurately ripped
4 | (15/15) Accurately ripped
5 | (15/15) Accurately ripped
6 | (15/15) Accurately ripped
7 | (15/15) Accurately ripped
8 | (15/15) Accurately ripped
==== Log checksum 6B9EE7A9D4806A5461B4EFD2C63914984E3E7745BD09A9C44DC0E9A7466E819D ====
 
Содержание индексной карты (.CUE)
REM GENRE Funk
REM DATE 1982
REM DISCID 5209E008
REM COMMENT "ExactAudioCopy v1.3"
PERFORMER "The Gap Band"
TITLE "IV"
REM COMPOSER ""
FILE "01 Early In The Morning.wav" WAVE
TRACK 01 AUDIO
TITLE "Early In The Morning"
PERFORMER "The Gap Band"
REM COMPOSER ""
INDEX 01 00:00:00
TRACK 02 AUDIO
TITLE "Seasons No Reason To Change"
PERFORMER "The Gap Band"
REM COMPOSER ""
INDEX 00 06:28:63
FILE "02 Seasons No Reason To Change.wav" WAVE
INDEX 01 00:00:00
TRACK 03 AUDIO
TITLE "Lonely Like Me"
PERFORMER "The Gap Band"
REM COMPOSER ""
INDEX 00 04:48:28
FILE "03 Lonely Like Me.wav" WAVE
INDEX 01 00:00:00
TRACK 04 AUDIO
TITLE "Outstanding"
PERFORMER "The Gap Band"
REM COMPOSER ""
INDEX 00 05:19:32
FILE "04 Outstanding.wav" WAVE
INDEX 01 00:00:00
TRACK 05 AUDIO
TITLE "Stay With Me"
PERFORMER "The Gap Band"
REM COMPOSER ""
INDEX 00 03:17:00
FILE "05 Stay With Me.wav" WAVE
INDEX 01 00:00:00
TRACK 06 AUDIO
TITLE "You Dropped A Bomb On Me"
PERFORMER "The Gap Band"
REM COMPOSER ""
INDEX 00 04:09:62
FILE "06 You Dropped A Bomb On Me.wav" WAVE
INDEX 01 00:00:00
TRACK 07 AUDIO
TITLE "I Can't Get Over You"
PERFORMER "The Gap Band"
REM COMPOSER ""
INDEX 00 05:10:47
FILE "07 I Can't Get Over You.wav" WAVE
INDEX 01 00:00:00
FILE "08 Talkin' Back.wav" WAVE
TRACK 08 AUDIO
TITLE "Talkin' Back"
PERFORMER "The Gap Band"
REM COMPOSER ""
INDEX 01 00:00:00
Приватный:
Нет (DHT включён)
Размер:
283.33 Мб (297,093,485 байт) » файлов: 17
Участники:
0 раздают, 1 качают (1 участников всего)
Внешние участники:
9 раздают, 3 качают (12 участников всего) [ Обновить ]
Скорость:
628.36 Кб/c 0/c
Есть вопросы - пишите личное сообщение пользователю M0p94ok.
13:56
81
Нет комментариев. Ваш будет первым!