Поиск

(Soul, Urban, R&B, Funk, Rap) [CD] Millie Jackson - Not For Church Folk! - 2001, FLAC (image+.cue), lossless

(Soul, Urban, R&B, Funk, Rap) [CD] Millie Jackson - Not For Church Folk! - 2001, FLAC (image+.cue), lossless
Треклист:
Millie Jackson / Not For Church Folk!
Жанр: Soul, Urban, R&B, Funk, Rap
Носитель: CD
Страна-производитель диска (релиза): US
Год издания: 2001
Издатель (лейбл): Weird Wreckurds
Номер по каталогу: 805020100125
Страна исполнителя (группы): US
Аудиокодек: FLAC (*.flac)
Тип рипа: image+.cue
Битрейт аудио: lossless
Продолжительность: 00:49:51
Источник (релизер): MadMJ
Наличие сканов в содержимом раздачи: нет
Треклист:
01 Butt-A-Cize 3:34
02 Leave Me Alone 4:41
03 In My Life 3:27
04 Girl Gotta Know (She's a Ho) 3:56
05 Night Dance 3:57
06 Trying 2 Get U Back 3:48
07 OMF 4:23
08 Water, Water 5:11
09 OB (Got It Going On) 3:30
10 I'm Fifty! 3:53
11 I'm Fifty! (reprise) 2:00
12 Butt-A-Cize (remix) 3:36
13 Caught in a Trap 3:58
 
Лог создания рипа
Exact Audio Copy V1.3 from 2. September 2016
Отчёт EAC об извлечении, выполненном 26. ноября 2017, 20:07
Millie Jackson / Not for Church Folk!
Дисковод: hp DVDRW DU8A6SH Adapter: 1 ID: 0
Режим чтения : Достоверность
Использование точного потока : Да
Отключение кэша аудио : Да
Использование указателей C2 : Нет
Коррекция смещения при чтении : 6
Способность читать области Lead-in и Lead-out : Нет
Заполнение пропущенных сэмплов тишиной : Да
Удаление блоков с тишиной в начале и конце : Нет
При вычислениях CRC использовались нулевые сэмплы : Да
Интерфейс : Встроенный Win32-интерфейс для Win NT/2000
Выходной формат : Пользовательский кодировщик
Выбранный битрейт : 768 kBit/s
Качество : Высокий
Добавление ID3-тега : Нет
Утилита сжатия : C:\Program Files (x86)\Exact Audio Copy\FLAC\FLAC.EXE
Дополнительные параметры : -V -8 -T "Date=%year%" -T "Genre=%genre%" %source%
TOC извлечённого CD
Трек | Старт | Длительность | Начальный сектор | Конечный сектор
---------------------------------------------------------------------
1 | 0:00.00 | 3:33.70 | 0 | 16044
2 | 3:33.70 | 4:40.47 | 16045 | 37091
3 | 8:14.42 | 3:27.23 | 37092 | 52639
4 | 11:41.65 | 3:55.47 | 52640 | 70311
5 | 15:37.37 | 3:56.53 | 70312 | 88064
6 | 19:34.15 | 3:47.45 | 88065 | 105134
7 | 23:21.60 | 4:22.67 | 105135 | 124851
8 | 27:44.52 | 5:10.70 | 124852 | 148171
9 | 32:55.47 | 3:29.63 | 148172 | 163909
10 | 36:25.35 | 3:52.47 | 163910 | 181356
11 | 40:18.07 | 2:00.00 | 181357 | 190356
12 | 42:18.07 | 3:36.00 | 190357 | 206556
13 | 45:54.07 | 3:57.65 | 206557 | 224396
Характеристики диапазона извлечения и сообщения об ошибках
Выбранный диапазон
Имя файла E:\EAC\Millie Jackson - Not for Church Folk!\Millie Jackson - Not for Church Folk!.wav
Пиковый уровень 99.9 %
Скорость извлечения 4.3 X
Качество диапазона 99.9 %
CRC теста 8C81339B
CRC копии 8C81339B
Копирование... OK
Ошибок не произошло
AccurateRip: сводка
Трек 1 отсутствует в базе данных
Трек 2 отсутствует в базе данных
Трек 3 отсутствует в базе данных
Трек 4 отсутствует в базе данных
Трек 5 отсутствует в базе данных
Трек 6 отсутствует в базе данных
Трек 7 отсутствует в базе данных
Трек 8 отсутствует в базе данных
Трек 9 отсутствует в базе данных
Трек 10 отсутствует в базе данных
Трек 11 отсутствует в базе данных
Трек 12 отсутствует в базе данных
Трек 13 отсутствует в базе данных
Ни одного трека нет в базе AccurateRip
Конец отчёта
==== Контрольная сумма отчёта 59108AA7DC818FB0FB015362098254F4E545C4CE8C6B89EF70BE205BCA43D154 ====
------------------------------------------------------------
 
Содержание индексной карты (.CUE)
REM DATE 2001-10-02
REM DISCID B70BAF0D
REM COMMENT ExactAudioCopy v1.3
PERFORMER "Millie Jackson"
TITLE "Not for Church Folk!"
FILE "Millie Jackson - Not for Church Folk!.flac" WAVE
TRACK 01 AUDIO
TITLE "Butt-A-Cize"
INDEX 01 00:00:00
TRACK 02 AUDIO
TITLE "Leave Me Alone"
INDEX 01 03:33:70
TRACK 03 AUDIO
TITLE "In My Life"
INDEX 01 08:14:42
TRACK 04 AUDIO
TITLE "Girl Gotta Know (She's a Ho)"
INDEX 01 11:41:65
TRACK 05 AUDIO
TITLE "Night Dance"
INDEX 01 15:37:37
TRACK 06 AUDIO
TITLE "Trying 2 Get U Back"
INDEX 01 19:34:15
TRACK 07 AUDIO
TITLE "OMF"
INDEX 01 23:21:60
TRACK 08 AUDIO
TITLE "Water, Water"
INDEX 01 27:44:52
TRACK 09 AUDIO
TITLE "OB (Got It Going On)"
INDEX 01 32:55:47
TRACK 10 AUDIO
TITLE "I'm Fifty!"
INDEX 01 36:25:35
TRACK 11 AUDIO
TITLE "I'm Fifty! (reprise)"
INDEX 01 40:18:07
TRACK 12 AUDIO
TITLE "Butt-A-Cize (remix)"
INDEX 01 42:18:07
TRACK 13 AUDIO
TITLE "Caught in a Trap"
INDEX 01 45:54:07
Доп. информация: https://en.wikipedia.org/wiki/Not_for_Church_Folk!
 
Об исполнителе (группе)
Mildred Virginia "Millie" Jackson (born July 15, 1944) is an American singer-songwriter. Six of her albums have been certified gold by the RIAA for over 500,000 copies.
Her vocal performances are often distinguished by long, humorous, and explicit spoken sections in her music, which she started doing on stage to get the attention of the audience. She has also recorded songs in a disco or dance music style and even some country styled songs. She is the mother of Keisha Jackson.
 
Об альбоме (сборнике)
Not For Church Folk! is a 2001 album by Millie Jackson, after just over a decade of no studio albums.
Expressing herself explicitly has never been a problem and here Millie blends contemporary technology and styling with traditional soul values in a way that few of her generation have managed to do. Maybe your vicar wouldn't like it - but if you like Millie, you most definitely will.
Приватный:
Нет (DHT включён)
Размер:
340.73 Мб (357,278,884 байт) » файлов: 4
Участники:
0 раздают, 0 качают (0 участников всего)
Внешние участники:
1 раздают, 0 качают (1 участников всего) [ Обновить ]
Есть вопросы - пишите личное сообщение пользователю M0p94ok.
15:02
59
Нет комментариев. Ваш будет первым!