Поиск

(Soul-Jazz, Jazz-Funk, Fusion) [CD] Les DeMerle - Transfusion - 1978 (2004 Japan Edition), FLAC (tracks+.cue), lossless

(Soul-Jazz, Jazz-Funk, Fusion) [CD] Les DeMerle - Transfusion - 1978 (2004 Japan Edition), FLAC (tracks+.cue), lossless
Треклист:
Les DeMerle - Transfusion
Жанр: Soul-Jazz, Jazz-Funk, Fusion
Носитель: CD
Страна-производитель диска (релиза): Япония
Год издания: 1978 (2004)
Издатель (лейбл): P-Vine Records/Dobre
Номер по каталогу: PCD-22085
Страна исполнителя (группы): США
Аудиокодек: FLAC (*.flac)
Тип рипа: tracks+.cue
Битрейт аудио: lossless
Продолжительность: 41:40
Источник (релизер): Wolo
Наличие сканов в содержимом раздачи: нет
Треклист:
01. Moondial (Robinson) - 3:24
02. Canned Heat Suite (Robinson) - 7:08
03. My Woman (Leviev) - 10:03
04. Bacchanal (Robinson) - 8:05
05. Kaballa (Davis) - 7:56
06. Funk It! If You Can't Take a Joke (DeMerle) - 5:04
 
Лог создания рипа
Exact Audio Copy V1.0 beta 3 from 29. August 2011
EAC extraction logfile from 29. October 2011, 13:06
Les DeMerle / Transfusion
Used drive : TSSTcorpCDDVDW TS-L633C Adapter: 2 ID: 0
Read mode : Secure
Utilize accurate stream : Yes
Defeat audio cache : Yes
Make use of C2 pointers : No
Read offset correction : 6
Overread into Lead-In and Lead-Out : No
Fill up missing offset samples with silence : Yes
Delete leading and trailing silent blocks : No
Null samples used in CRC calculations : Yes
Used interface : Native Win32 interface for Win NT & 2000
Gap handling : Appended to previous track
Used output format : User Defined Encoder
Selected bitrate : 128 kBit/s
Quality : High
Add ID3 tag : No
Command line compressor : C:\Program Files (x86)\Exact Audio Copy\Flac\flac.exe
Additional command line options : -8 -V -T "ARTIST=%artist%" -T "TITLE=%title%" -T "ALBUM=%albumtitle%" -T "DATE=%year%" -T "TRACKNUMBER=%tracknr%" -T "GENRE=%genre%" -T "PERFORMER=%albuminterpret%" -T "COMPOSER=%composer%" %haslyrics%--tag-from-file=LYRICS="%lyricsfile%"%haslyrics% -T "ALBUMARTIST=%albumartist%" -T "ALBUM ARTIST=%albumartist%" -T "DISCNUMBER=%cdnumber%" -T "TOTALDISCS=%totalcds%" -T "TOTALTRACKS=%numtracks%" -T "COMMENT=EAC V1.0 beta 2, Secure Mode, Test & Copy, AccurateRip, FLAC -8" %source% -o %dest%
TOC of the extracted CD
Track | Start | Length | Start sector | End sector
---------------------------------------------------------
1 | 0:00.00 | 3:24.04 | 0 | 15303
2 | 3:24.04 | 7:07.55 | 15304 | 47383
3 | 10:31.59 | 10:02.74 | 47384 | 92607
4 | 20:34.58 | 8:05.04 | 92608 | 128986
5 | 28:39.62 | 7:55.42 | 128987 | 164653
6 | 36:35.29 | 5:03.53 | 164654 | 187431
Track 1
Filename G:\EACRIPS\Les DeMerle - Transfusion (1978) [FLAC]\01. Moondial.wav
Pre-gap length 0:00:02.00
Peak level 100.0 %
Extraction speed 2.1 X
Track quality 100.0 %
Test CRC BE0C61D6
Copy CRC BE0C61D6
Track not present in AccurateRip database
Copy OK
Track 2
Filename G:\EACRIPS\Les DeMerle - Transfusion (1978) [FLAC]\02. Canned Heat Suite.wav
Pre-gap length 0:00:01.96
Peak level 100.0 %
Extraction speed 2.6 X
Track quality 100.0 %
Test CRC 3239C52E
Copy CRC 3239C52E
Track not present in AccurateRip database
Copy OK
Track 3
Filename G:\EACRIPS\Les DeMerle - Transfusion (1978) [FLAC]\03. My Woman.wav
Pre-gap length 0:00:06.36
Peak level 90.8 %
Extraction speed 3.1 X
Track quality 100.0 %
Test CRC A27BC502
Copy CRC A27BC502
Track not present in AccurateRip database
Copy OK
Track 4
Filename G:\EACRIPS\Les DeMerle - Transfusion (1978) [FLAC]\04. Bacchanal.wav
Pre-gap length 0:00:02.70
Peak level 100.0 %
Extraction speed 3.1 X
Track quality 99.9 %
Test CRC F6CA8503
Copy CRC F6CA8503
Track not present in AccurateRip database
Copy OK
Track 5
Filename G:\EACRIPS\Les DeMerle - Transfusion (1978) [FLAC]\05. Kaballa.wav
Pre-gap length 0:00:03.42
Peak level 99.3 %
Extraction speed 3.8 X
Track quality 100.0 %
Test CRC 5076C800
Copy CRC 5076C800
Track not present in AccurateRip database
Copy OK
Track 6
Filename G:\EACRIPS\Les DeMerle - Transfusion (1978) [FLAC]\06. Funk It! If You Can't Take a Joke.wav
Pre-gap length 0:00:02.56
Peak level 96.4 %
Extraction speed 3.8 X
Track quality 100.0 %
Test CRC D8B2AA91
Copy CRC D8B2AA91
Track not present in AccurateRip database
Copy OK
None of the tracks are present in the AccurateRip database
No errors occurred
End of status report
---- CUETools DB Plugin V2.1.3
[CTDB TOCID: YTL4_vNamKqr.Wi4ORHI88iyHN8-] disk not present in database, Submit result: YTL4_vNamKqr.Wi4ORHI88iyHN8- has been uploaded
==== Log checksum 7E0558286865BF24C0B5B8F33DAAD4C3D3B007FFB2A429D36E7037D97CD82ED0 ====
 
Содержание индексной карты (.CUE)
REM GENRE Jazz
REM DATE 1978
REM DISCID 4009C306
REM COMMENT "ExactAudioCopy v1.0b3"
PERFORMER "Les DeMerle"
TITLE "Transfusion"
FILE "01 - Moondial.wav" WAVE
TRACK 01 AUDIO
TITLE "Moondial"
PERFORMER "Les DeMerle"
INDEX 01 00:00:00
TRACK 02 AUDIO
TITLE "Canned Heat Suite"
PERFORMER "Les DeMerle"
INDEX 00 03:22:07
FILE "02 - Canned Heat Suite.wav" WAVE
INDEX 01 00:00:00
TRACK 03 AUDIO
TITLE "My Woman"
PERFORMER "Les DeMerle"
INDEX 00 07:01:28
FILE "03 - My Woman.wav" WAVE
INDEX 01 00:00:00
TRACK 04 AUDIO
TITLE "Bacchanal"
PERFORMER "Les DeMerle"
INDEX 00 10:00:21
FILE "04 - Bacchanal.wav" WAVE
INDEX 01 00:00:00
TRACK 05 AUDIO
TITLE "Kaballa"
PERFORMER "Les DeMerle"
INDEX 00 08:01:47
FILE "05 - Kaballa.wav" WAVE
INDEX 01 00:00:00
TRACK 06 AUDIO
TITLE "Funk It! If You Can't Take a Joke"
PERFORMER "Les DeMerle"
INDEX 00 07:53:00
FILE "06 - Funk It! If You Can't Take a Joke.wav" WAVE
INDEX 01 00:00:00
 
Отчет CUETools
[CUETools log; Date: 27.11.2017 0:37:45; Version: 2.1.5]
[CTDB TOCID: YTL4_vNamKqr.Wi4ORHI88iyHN8-] found.
Track | CTDB Status
1 | (4/4) Accurately ripped
2 | (4/4) Accurately ripped
3 | (4/4) Accurately ripped
4 | (4/4) Accurately ripped
5 | (4/4) Accurately ripped
6 | (4/4) Accurately ripped
[AccurateRip ID: 0009b5d1-0035394c-4009c306] found.
Track [ CRC | V2 ] Status
01 [cd3f15b8|a5b2624c] (0+3/3) Accurately ripped
02 [3a9fb645|a7a0c7cb] (0+3/3) Accurately ripped
03 [f8e6912c|283ce4a1] (0+3/3) Accurately ripped
04 [23ad0371|e09d8873] (0+3/3) Accurately ripped
05 [732d9054|85b926df] (0+3/3) Accurately ripped
06 [73ae7087|46a7cee6] (0+3/3) Accurately ripped
Track Peak [ CRC32 ] [W/O NULL] [ LOG ]
-- 100,0 [8416B56C] [1CF63BFF]
01 100,0 [BE0C61D6] [2D7088DB] CRC32
02 100,0 [3239C52E] [ADBF42B2] CRC32
03 90,8 [A27BC502] [2E1CC30F] CRC32
04 100,0 [F6CA8503] [D8165DC9] CRC32
05 99,3 [5076C800] [31533B20] CRC32
06 96,4 [D8B2AA91] [0C89138B] CRC32
 
Состав
Les DeMerle - drums
Robby Robinson - piano, Fender Rhodes, organ, Mini Moog, Polymoog & Oberheim synthesizers
Rex Robinson - Fender bass
Doug Norwine - alto saxophone, tenor saxophone, soprano saxophone, flutes
John Phillips - tenor saxophone, soprano saxophone, flutes
Danny Brin - guitar
Onike - vocals
with special guests
Raul de Souza - bass trombone
Milcho Leviev - acoustic piano
John B. Williams - acoustic bass
Nolan Smith - trumpet, flugelhorn
Emmett Chapman - electric stick
Recorded at Gold Star Studios, Hollywood, CA on November 16 and December 6, 1977.
Приватный:
Нет (DHT включён)
Размер:
275.35 Мб (288,727,289 байт) » файлов: 11
Участники:
0 раздают, 0 качают (0 участников всего)
Внешние участники:
2 раздают, 1 качают (3 участников всего) [ Обновить ]
No seeders - write a personal message to user M0p94ok. Нет сидеров - пишите личное сообщение пользователю M0p94ok.
15:01
66
Нет комментариев. Ваш будет первым!