Поиск

(Soul-Jazz) [CD] Les DeMerle - Spectrum - 1970 (2011), FLAC (tracks+.cue), lossless

(Soul-Jazz) [CD] Les DeMerle - Spectrum - 1970 (2011), FLAC (tracks+.cue), lossless
Треклист:
Les DeMerle - Spectrum
Жанр: Soul-Jazz
Носитель: CD
Страна-производитель диска (релиза): США
Год издания: 1970 (2011)
Издатель (лейбл): Get On Down/Capitol/United Artists
Номер по каталогу: GET-53504
Аудиокодек: FLAC (*.flac)
Тип рипа: tracks+.cue
Битрейт аудио: lossless
Продолжительность: 46:39
Источник (релизер): What.CD
Наличие сканов в содержимом раздачи: нет
Треклист:
01. Spectrum (DeMerle) - 1:02
02. A Taste of Honey (Scott-Marlow) - 3:44
03. Dio Dati (God Gives) (Simmons) - 5:32
04. Underground (Halligan) - 2:47
05. A Day in the Life (Lennon-McCartney) - 6:04
06. Fusion - Pro & Con (Nurock) - 9:27
07. Aquarius (Ragni-Rado-MacDermot) - 3:12
08. Deflections 1, 2, 3 & 4 (DeMerle-Simmons) - 8:39
09. The Raven (Sandridge) - 3:17
10. I Am the Walrus (Lennon-McCartney) - 2:55
 
Лог создания рипа
Exact Audio Copy V1.0 beta 3 from 29. August 2011
EAC extraction logfile from 11. August 2013, 1:14
Les DeMerle / Spectrum
Used drive : HL-DT-STDVDRAM GH24NS50 Adapter: 2 ID: 5
Read mode : Secure
Utilize accurate stream : Yes
Defeat audio cache : Yes
Make use of C2 pointers : No
Read offset correction : 667
Overread into Lead-In and Lead-Out : No
Fill up missing offset samples with silence : Yes
Delete leading and trailing silent blocks : No
Null samples used in CRC calculations : Yes
Used interface : Native Win32 interface for Win NT & 2000
Gap handling : Appended to previous track
Used output format : User Defined Encoder
Selected bitrate : 1024 kBit/s
Quality : High
Add ID3 tag : Yes
Command line compressor : C:\Program Files (x86)\FLAC\flac.exe
Additional command line options : -8 -V -T "ARTIST=%artist%" -T "TITLE=%title%" -T "ALBUM=%albumtitle%" -T "DATE=%year%" -T "TRACKNUMBER=%tracknr%" -T "GENRE=%genre%" -T "PERFORMER=%albuminterpret%" -T "COMPOSER=%composer%" %haslyrics%--tag-from-file=LYRICS="%lyricsfile%"%haslyrics% -T "ALBUMARTIST=%albumartist%" -T "DISCNUMBER=%cdnumber%" -T "TOTALDISCS=%totalcds%" -T "TOTALTRACKS=%numtracks%" -T "COMMENT=%comment%" %source% -o %dest%
TOC of the extracted CD
Track | Start | Length | Start sector | End sector
---------------------------------------------------------
1 | 0:00.00 | 1:01.38 | 0 | 4612
2 | 1:01.38 | 3:44.29 | 4613 | 21441
3 | 4:45.67 | 5:32.10 | 21442 | 46351
4 | 10:18.02 | 2:46.63 | 46352 | 58864
5 | 13:04.65 | 6:04.11 | 58865 | 86175
6 | 19:09.01 | 9:26.55 | 86176 | 128680
7 | 28:35.56 | 3:12.25 | 128681 | 143105
8 | 31:48.06 | 8:39.04 | 143106 | 182034
9 | 40:27.10 | 3:17.21 | 182035 | 196830
10 | 43:44.31 | 2:55.24 | 196831 | 209979
Track 1
Filename K:\EAC\Les DeMerle - Spectrum (1970)\01 Spectrum.wav
Pre-gap length 0:00:02.00
Peak level 98.8 %
Extraction speed 0.8 X
Track quality 100.0 %
Test CRC AF996979
Copy CRC AF996979
Accurately ripped (confidence 1) [86501AD4] (AR v2)
Copy OK
Track 2
Filename K:\EAC\Les DeMerle - Spectrum (1970)\02 A Taste Of Honey.wav
Peak level 98.8 %
Extraction speed 1.1 X
Track quality 100.0 %
Test CRC EDBCCBA6
Copy CRC EDBCCBA6
Accurately ripped (confidence 1) [D724B711] (AR v2)
Copy OK
Track 3
Filename K:\EAC\Les DeMerle - Spectrum (1970)\03 Dio Dati (God Gives).wav
Pre-gap length 0:00:00.74
Peak level 98.8 %
Extraction speed 1.4 X
Track quality 100.0 %
Test CRC 2CE79879
Copy CRC 2CE79879
Accurately ripped (confidence 1) [57BB0BDE] (AR v2)
Copy OK
Track 4
Filename K:\EAC\Les DeMerle - Spectrum (1970)\04 Underground.wav
Pre-gap length 0:00:01.74
Peak level 98.8 %
Extraction speed 1.3 X
Track quality 100.0 %
Test CRC 57C74A6B
Copy CRC 57C74A6B
Accurately ripped (confidence 1) [A19B7F97] (AR v2)
Copy OK
Track 5
Filename K:\EAC\Les DeMerle - Spectrum (1970)\05 A Day In The Life.wav
Pre-gap length 0:00:01.74
Peak level 98.8 %
Extraction speed 1.6 X
Track quality 100.0 %
Test CRC 15DC827E
Copy CRC 15DC827E
Accurately ripped (confidence 1) [E5314EB4] (AR v2)
Copy OK
Track 6
Filename K:\EAC\Les DeMerle - Spectrum (1970)\06 Fusion - Pro & Con.wav
Pre-gap length 0:00:01.74
Peak level 98.8 %
Extraction speed 1.7 X
Track quality 99.9 %
Test CRC 659F9A31
Copy CRC 659F9A31
Accurately ripped (confidence 1) [2FEC1149] (AR v2)
Copy OK
Track 7
Filename K:\EAC\Les DeMerle - Spectrum (1970)\07 Aquarius.wav
Pre-gap length 0:00:01.74
Peak level 98.8 %
Extraction speed 1.8 X
Track quality 100.0 %
Test CRC 338D8710
Copy CRC 338D8710
Accurately ripped (confidence 1) [43FBB6B5] (AR v2)
Copy OK
Track 8
Filename K:\EAC\Les DeMerle - Spectrum (1970)\08 Deflections 1, 2, 3 & 4.wav
Pre-gap length 0:00:02.73
Peak level 98.8 %
Extraction speed 2.1 X
Track quality 100.0 %
Test CRC 74E60309
Copy CRC 74E60309
Accurately ripped (confidence 1) [5E632D1E] (AR v2)
Copy OK
Track 9
Filename K:\EAC\Les DeMerle - Spectrum (1970)\09 The Raven (Bonus Track).wav
Pre-gap length 0:00:01.74
Peak level 98.8 %
Extraction speed 2.0 X
Track quality 100.0 %
Test CRC 666190DE
Copy CRC 666190DE
Accurately ripped (confidence 1) [9A9D304D] (AR v2)
Copy OK
Track 10
Filename K:\EAC\Les DeMerle - Spectrum (1970)\10 I Am The Walrus (Bonus Track).wav
Pre-gap length 0:00:01.74
Peak level 98.8 %
Extraction speed 1.6 X
Track quality 99.9 %
Test CRC E84F8796
Copy CRC E84F8796
Accurately ripped (confidence 1) [34425E9C] (AR v2)
Copy OK
All tracks accurately ripped
No errors occurred
End of status report
---- CUETools DB Plugin V2.1.3
[CTDB TOCID: D5i9lcpw.khqT2haF1Ey_PSGFkQ-] disk not present in database, Submit result: D5i9lcpw.khqT2haF1Ey_PSGFkQ- has been uploaded
==== Log checksum EE33D9F57BE8944CE62DE56FA2A2171F493197BA8AD1FDBD21CAC50838A4017C ====
 
Содержание индексной карты (.CUE)
REM GENRE Jazz
REM DATE 1970
REM DISCID 7D0AEF0A
REM COMMENT "ExactAudioCopy v1.0b3"
PERFORMER "Les DeMerle"
TITLE "Spectrum"
FILE "01 - Spectrum.wav" WAVE
TRACK 01 AUDIO
TITLE "Spectrum"
PERFORMER "Les DeMerle"
INDEX 01 00:00:00
FILE "02 - A Taste of Honey.wav" WAVE
TRACK 02 AUDIO
TITLE "A Taste of Honey"
PERFORMER "Les DeMerle"
INDEX 01 00:00:00
TRACK 03 AUDIO
TITLE "Dio Dati (God Gives)"
PERFORMER "Les DeMerle"
INDEX 00 03:43:30
FILE "03 - Dio Dati (God Gives).wav" WAVE
INDEX 01 00:00:00
TRACK 04 AUDIO
TITLE "Underground"
PERFORMER "Les DeMerle"
INDEX 00 05:30:11
FILE "04 - Underground.wav" WAVE
INDEX 01 00:00:00
TRACK 05 AUDIO
TITLE "A Day in the Life"
PERFORMER "Les DeMerle"
INDEX 00 02:44:64
FILE "05 - A Day in the Life.wav" WAVE
INDEX 01 00:00:00
TRACK 06 AUDIO
TITLE "Fusion - Pro & Con"
PERFORMER "Les DeMerle"
INDEX 00 06:02:12
FILE "06 - Fusion - Pro & Con.wav" WAVE
INDEX 01 00:00:00
TRACK 07 AUDIO
TITLE "Aquarius"
PERFORMER "Les DeMerle"
INDEX 00 09:24:56
FILE "07 - Aquarius.wav" WAVE
INDEX 01 00:00:00
TRACK 08 AUDIO
TITLE "Deflections 1, 2, 3 & 4"
PERFORMER "Les DeMerle"
INDEX 00 03:09:27
FILE "08 - Deflections 1, 2, 3 & 4.wav" WAVE
INDEX 01 00:00:00
TRACK 09 AUDIO
TITLE "The Raven"
PERFORMER "Les DeMerle"
INDEX 00 08:37:05
FILE "09 - The Raven.wav" WAVE
INDEX 01 00:00:00
TRACK 10 AUDIO
TITLE "I Am the Walrus"
PERFORMER "Les DeMerle"
INDEX 00 03:15:22
FILE "10 - I Am the Walrus.wav" WAVE
INDEX 01 00:00:00
 
Отчет CUETools
[CUETools log; Date: 27.11.2017 0:14:20; Version: 2.1.5]
[CTDB TOCID: D5i9lcpw.khqT2haF1Ey_PSGFkQ-] found.
Track | CTDB Status
1 | (2/2) Accurately ripped
2 | (2/2) Accurately ripped
3 | (2/2) Accurately ripped
4 | (2/2) Accurately ripped
5 | (2/2) Accurately ripped
6 | (2/2) Accurately ripped
7 | (2/2) Accurately ripped
8 | (2/2) Accurately ripped
9 | (2/2) Accurately ripped
10 | (2/2) Accurately ripped
[AccurateRip ID: 00107341-0089d2aa-7d0aef0a] found.
Track [ CRC | V2 ] Status
01 [0b942710|86501ad4] (0+1/1) Accurately ripped
02 [d47a36b5|d724b711] (0+1/1) Accurately ripped
03 [0224df5d|57bb0bde] (0+1/1) Accurately ripped
04 [9c029747|a19b7f97] (0+1/1) Accurately ripped
05 [2a11df1f|e5314eb4] (0+1/1) Accurately ripped
06 [668a9d41|2fec1149] (0+1/1) Accurately ripped
07 [2a668a7d|43fbb6b5] (0+1/1) Accurately ripped
08 [8ae53d0a|5e632d1e] (0+1/1) Accurately ripped
09 [e2760179|9a9d304d] (0+1/1) Accurately ripped
10 [691dae06|34425e9c] (0+1/1) Accurately ripped
Track Peak [ CRC32 ] [W/O NULL] [ LOG ]
-- 98,8 [6FADAC57] [117EC867]
01 98,8 [AF996979] [A242237F] CRC32
02 98,8 [EDBCCBA6] [DE36761D] CRC32
03 98,8 [2CE79879] [86D87B26] CRC32
04 98,8 [57C74A6B] [47E64BC6] CRC32
05 98,8 [15DC827E] [646BDE3D] CRC32
06 98,8 [659F9A31] [20CCE7CA] CRC32
07 98,8 [338D8710] [380DDDC0] CRC32
08 98,8 [74E60309] [E4B4EAB8] CRC32
09 98,8 [666190DE] [207419C1] CRC32
10 98,8 [E84F8796] [81D834F9] CRC32
 
Состав
Les DeMerle - drums
Charles Sullivan, Marvin Stamm, John Gatchel, Steve Furtado, Jarry Weiss - trumpet, flugelhorn
John Gordon - trombone
Arnie Lawrence - alto saxophone, clarinet
Howard Leshaw - tenor saxophone, soprano saxophone, clarinet, flute
Lew Tabakin - tenor saxophone, flute
Frank Foster - tenor saxophone, clarinet
Chriss Woods - baritone saxophone, flute
Joe Beck, Sam Brown - guitar
Norman Simmons - piano, organ, electric piano
Bill Takas - Fender bass
Juggy Murray - producer
Приватный:
Нет (DHT включён)
Размер:
293.03 Мб (307,268,712 байт) » файлов: 17
Участники:
0 раздают, 0 качают (0 участников всего)
Внешние участники:
3 раздают, 1 качают (4 участников всего) [ Обновить ]
Есть вопросы - пишите личное сообщение пользователю M0p94ok.
15:01
110
Нет комментариев. Ваш будет первым!