Поиск

(Funk, Soul) [CD] Maxine Weldon - Chilly Wind - 1971 (2007 Japan Edition), FLAC (tracks+.cue), lossless

(Funk, Soul) [CD] Maxine Weldon - Chilly Wind - 1971 (2007 Japan Edition), FLAC (tracks+.cue), lossless
Треклист:
Maxine Weldon - Chilly Wind
Жанр: Funk, Soul
Носитель: CD
Страна-производитель диска (релиза): Япония
Год издания: 1971 (2007)
Издатель (лейбл): P-Vine Records/Mainstream
Номер по каталогу: PCD-93041
Аудиокодек: FLAC (*.flac)
Тип рипа: tracks+.cue
Битрейт аудио: lossless
Продолжительность: 32:48
Источник (релизер): canary
Наличие сканов в содержимом раздачи: нет
Треклист:
01. Chilly Wind (Trad.) - 4:12
02. I Think It's Going to Rain Today (Newman) - 2:17
03. Ain't Got Nobody (Randolph) - 2:53
04. Country Son (Kleinman-Markish) - 3:45
05. Fire and Rain (Taylor) - 3:38
06. Don't Make Promises (Harden) - 3:52
07. It Don't Matter to Me (Gates) - 3:22
08. I (Who Have Nothing) (Lieber-Stoller-Donida) - 2:19
09. I'll Remember Today (Piaf-Engvick) - 3:13
10. Hey, That's No Way to Say Goodbye (Cohen) - 3:17
 
Лог создания рипа
Exact Audio Copy V1.3 from 2. September 2016
EAC extraction logfile from 19. January 2017, 20:49
Maxine Weldon / Chilly Wind
Used drive : ASUS DRW-24B1ST Adapter: 1 ID: 0
Read mode : Secure
Utilize accurate stream : Yes
Defeat audio cache : Yes
Make use of C2 pointers : No
Read offset correction : 6
Overread into Lead-In and Lead-Out : No
Fill up missing offset samples with silence : Yes
Delete leading and trailing silent blocks : No
Null samples used in CRC calculations : Yes
Used interface : Native Win32 interface for Win NT & 2000
Gap handling : Appended to previous track
Used output format : User Defined Encoder
Selected bitrate : 1024 kBit/s
Quality : High
Add ID3 tag : No
Command line compressor : C:\Program Files\FLAC 1.3.1\win64\flac.exe
Additional command line options : -8 -e -p -V -T "ARTIST=%artist%" -T "TITLE=%title%" -T "ALBUM=%albumtitle%" -T "DATE=%year%" -T "TRACKNUMBER=%tracknr%" -T "GENRE=%genre%" -T "PERFORMER=%albuminterpret%" -T "COMPOSER=%composer%" %haslyrics%--tag-from-file=LYRICS="%lyricsfile%"%haslyrics% -T "ALBUMARTIST=%albumartist%" -T "DISCNUMBER=%cdnumber%" -T "TOTALDISCS=%totalcds%" -T "TOTALTRACKS=%numtracks%" -T "COMMENT=%comment%" %source% -o %dest%
TOC of the extracted CD
Track | Start | Length | Start sector | End sector
---------------------------------------------------------
1 | 0:00.00 | 4:12.24 | 0 | 18923
2 | 4:12.24 | 2:16.44 | 18924 | 29167
3 | 6:28.68 | 2:52.68 | 29168 | 42135
4 | 9:21.61 | 3:44.62 | 42136 | 58997
5 | 13:06.48 | 3:37.42 | 58998 | 75314
6 | 16:44.15 | 3:52.24 | 75315 | 92738
7 | 20:36.39 | 3:21.59 | 92739 | 107872
8 | 23:58.23 | 2:19.35 | 107873 | 118332
9 | 26:17.58 | 3:13.25 | 118333 | 132832
10 | 29:31.08 | 3:17.22 | 132833 | 147629
Track 1
Filename C:\EAC Rips\01 - Chilly Wind.wav
Pre-gap length 0:00:02.00
Peak level 96.6 %
Extraction speed 2.8 X
Track quality 99.9 %
Test CRC 363DF8C2
Copy CRC 363DF8C2
Track not present in AccurateRip database
Copy OK
Track 2
Filename C:\EAC Rips\02 - I Think It's Going to Rain Today.wav
Pre-gap length 0:00:03.28
Peak level 96.6 %
Extraction speed 3.4 X
Track quality 100.0 %
Test CRC 2C2EE811
Copy CRC 2C2EE811
Track not present in AccurateRip database
Copy OK
Track 3
Filename C:\EAC Rips\03 - Ain't Got Nobody.wav
Pre-gap length 0:00:02.80
Peak level 96.6 %
Extraction speed 3.7 X
Track quality 100.0 %
Test CRC D60DDDF6
Copy CRC D60DDDF6
Track not present in AccurateRip database
Copy OK
Track 4
Filename C:\EAC Rips\04 - Country Son.wav
Pre-gap length 0:00:04.04
Peak level 96.6 %
Extraction speed 4.2 X
Track quality 100.0 %
Test CRC 203F2FC6
Copy CRC 203F2FC6
Track not present in AccurateRip database
Copy OK
Track 5
Filename C:\EAC Rips\05 - Fire and Rain.wav
Pre-gap length 0:00:02.92
Peak level 96.6 %
Extraction speed 4.4 X
Track quality 100.0 %
Test CRC 1919FE25
Copy CRC 1919FE25
Track not present in AccurateRip database
Copy OK
Track 6
Filename C:\EAC Rips\06 - Don't Make Promises.wav
Pre-gap length 0:00:04.00
Peak level 96.6 %
Extraction speed 4.7 X
Track quality 100.0 %
Test CRC AE33E9FE
Copy CRC AE33E9FE
Track not present in AccurateRip database
Copy OK
Track 7
Filename C:\EAC Rips\07 - It Don't Matter to Me.wav
Pre-gap length 0:00:02.84
Peak level 96.6 %
Extraction speed 4.7 X
Track quality 100.0 %
Test CRC BB38A647
Copy CRC BB38A647
Track not present in AccurateRip database
Copy OK
Track 8
Filename C:\EAC Rips\08 - I (Who Have Nothing).wav
Pre-gap length 0:00:03.42
Peak level 96.6 %
Extraction speed 4.6 X
Track quality 100.0 %
Test CRC 5D024629
Copy CRC 5D024629
Track not present in AccurateRip database
Copy OK
Track 9
Filename C:\EAC Rips\09 - I'll Remember Today.wav
Pre-gap length 0:00:02.77
Peak level 96.6 %
Extraction speed 5.0 X
Track quality 100.0 %
Test CRC A1867CAC
Copy CRC A1867CAC
Track not present in AccurateRip database
Copy OK
Track 10
Filename C:\EAC Rips\10 - Hey, That's No Way to Say Goodbye.wav
Pre-gap length 0:00:02.78
Peak level 96.6 %
Extraction speed 5.3 X
Track quality 100.0 %
Test CRC B391CC18
Copy CRC B391CC18
Track not present in AccurateRip database
Copy OK
None of the tracks are present in the AccurateRip database
No errors occurred
End of status report
---- CUETools DB Plugin V2.1.6
[CTDB TOCID: Cfi9jceuJ1iXFxHBKEIeSddkpwo-] disk not present in database
Submit result: Cfi9jceuJ1iXFxHBKEIeSddkpwo- has been uploaded
==== Log checksum D7F4E94A24A8B302F47C63B7A623501BFB6E7579F0A1DF12DEDD22DBE6B5CF06 ====
 
Содержание индексной карты (.CUE)
REM GENRE Soul
REM DATE 1971
REM DISCID 8407B00A
REM COMMENT "ExactAudioCopy v1.3"
CATALOG 4995879930410
PERFORMER "Maxine Weldon"
TITLE "Chilly Wind"
FILE "01 - Chilly Wind.wav" WAVE
TRACK 01 AUDIO
TITLE "Chilly Wind"
PERFORMER "Maxine Weldon"
INDEX 01 00:00:00
TRACK 02 AUDIO
TITLE "I Think It's Going to Rain Today"
PERFORMER "Maxine Weldon"
INDEX 00 04:09:03
FILE "02 - I Think It's Going to Rain Today.wav" WAVE
INDEX 01 00:00:00
TRACK 03 AUDIO
TITLE "Ain't Got Nobody"
PERFORMER "Maxine Weldon"
INDEX 00 02:13:59
FILE "03 - Ain't Got Nobody.wav" WAVE
INDEX 01 00:00:00
TRACK 04 AUDIO
TITLE "Country Son"
PERFORMER "Maxine Weldon"
INDEX 00 02:48:65
FILE "04 - Country Son.wav" WAVE
INDEX 01 00:00:00
TRACK 05 AUDIO
TITLE "Fire and Rain"
PERFORMER "Maxine Weldon"
INDEX 00 03:41:68
FILE "05 - Fire and Rain.wav" WAVE
INDEX 01 00:00:00
TRACK 06 AUDIO
TITLE "Don't Make Promises"
PERFORMER "Maxine Weldon"
INDEX 00 03:33:42
FILE "06 - Don't Make Promises.wav" WAVE
INDEX 01 00:00:00
TRACK 07 AUDIO
TITLE "It Don't Matter to Me"
PERFORMER "Maxine Weldon"
INDEX 00 03:49:36
FILE "07 - It Don't Matter to Me.wav" WAVE
INDEX 01 00:00:00
TRACK 08 AUDIO
TITLE "I (Who Have Nothing)"
PERFORMER "Maxine Weldon"
INDEX 00 03:18:27
FILE "08 - I (Who Have Nothing).wav" WAVE
INDEX 01 00:00:00
TRACK 09 AUDIO
TITLE "I'll Remember Today"
PERFORMER "Maxine Weldon"
INDEX 00 02:16:52
FILE "09 - I'll Remember Today.wav" WAVE
INDEX 01 00:00:00
TRACK 10 AUDIO
TITLE "Hey, That's No Way to Say Goodbye"
PERFORMER "Maxine Weldon"
INDEX 00 03:10:41
FILE "10 - Hey, That's No Way to Say Goodbye.wav" WAVE
INDEX 01 00:00:00
 
Состав
Maxine Weldon - vocals
Blue Mitchell, Bobby Bryant, Harry Edison - trumpet
Bill Green - flute, baritone saxophone
Hadley Caliman, Ernie Watts - tenor saxophone, flute
George Bohanon - trombone
Bob West - bass
Fred Robinson, Al Vescovo - guitar
Randy Randolph - piano
Earl Palmer, Paul Humphrey - drums
Alan Estes - mallets, percussion
Ernie Wilkins - arranger, conductor
Bob Shad - producer
Приватный:
Нет (DHT включён)
Размер:
210.34 Мб (220,562,061 байт) » файлов: 15
Участники:
0 раздают, 0 качают (0 участников всего)
Внешние участники:
3 раздают, 1 качают (4 участников всего) [ Обновить ]
Есть вопросы - пишите личное сообщение пользователю M0p94ok.
15:00
47
Нет комментариев. Ваш будет первым!