Поиск

(Funk, Soul) [CD] Maxine Weldon - Right On - 1971 (2007 Japan Edition), FLAC (tracks+.cue), lossless

(Funk, Soul) [CD] Maxine Weldon - Right On - 1971 (2007 Japan Edition), FLAC (tracks+.cue), lossless
Треклист:
Maxine Weldon - Right On
Жанр: Funk, Soul
Носитель: CD
Страна-производитель диска (релиза): Япония
Год издания: 1971 (2007)
Издатель (лейбл): P-Vine Records/Mainstream
Номер по каталогу: PCD-93040
Аудиокодек: FLAC (*.flac)
Тип рипа: tracks+.cue
Битрейт аудио: lossless
Продолжительность: 34:49
Источник (релизер): canary
Наличие сканов в содержимом раздачи: нет
Треклист:
01. It Ain't Me Babe (Dylan) - 3:35
02. Johnny One Time (Frazier-Owen) - 5:22
03. Feeling All Right (Mason) - 4:16
04. Right On (Randolph-Batchelor) - 4:03
05. Grits Ain't Groceries (All Around the World) (Turner) - 2:30
06. Like a Rolling Stone (Dylan) - 3:31
07. Tomorrow on My Mind (Randolph-Batchelor) - 4:16
08. Lodi (Fogerty) - 4:20
09. Make It with You (Gates) - 2:56
 
Лог создания рипа
Exact Audio Copy V1.3 from 2. September 2016
EAC extraction logfile from 11. May 2017, 18:40
Maxine Weldon / Right On
Used drive : ASUS DRW-24B1ST Adapter: 1 ID: 0
Read mode : Secure
Utilize accurate stream : Yes
Defeat audio cache : Yes
Make use of C2 pointers : No
Read offset correction : 6
Overread into Lead-In and Lead-Out : No
Fill up missing offset samples with silence : Yes
Delete leading and trailing silent blocks : No
Null samples used in CRC calculations : Yes
Used interface : Native Win32 interface for Win NT & 2000
Gap handling : Appended to previous track
Used output format : User Defined Encoder
Selected bitrate : 1024 kBit/s
Quality : High
Add ID3 tag : No
Command line compressor : C:\Program Files\FLAC 1.3.1\win64\flac.exe
Additional command line options : -8 -e -p -V -T "ARTIST=%artist%" -T "TITLE=%title%" -T "ALBUM=%albumtitle%" -T "DATE=%year%" -T "TRACKNUMBER=%tracknr%" -T "GENRE=%genre%" -T "PERFORMER=%albuminterpret%" -T "COMPOSER=%composer%" %haslyrics%--tag-from-file=LYRICS="%lyricsfile%"%haslyrics% -T "ALBUMARTIST=%albumartist%" -T "DISCNUMBER=%cdnumber%" -T "TOTALDISCS=%totalcds%" -T "TOTALTRACKS=%numtracks%" -T "COMMENT=%comment%" %source% -o %dest%
TOC of the extracted CD
Track | Start | Length | Start sector | End sector
---------------------------------------------------------
1 | 0:00.00 | 3:34.41 | 0 | 16090
2 | 3:34.41 | 5:21.57 | 16091 | 40222
3 | 8:56.23 | 4:15.56 | 40223 | 59403
4 | 13:12.04 | 4:02.50 | 59404 | 77603
5 | 17:14.54 | 2:29.74 | 77604 | 88852
6 | 19:44.53 | 3:31.29 | 88853 | 104706
7 | 23:16.07 | 4:15.54 | 104707 | 123885
8 | 27:31.61 | 4:20.36 | 123886 | 143421
9 | 31:52.22 | 2:56.29 | 143422 | 156650
Track 1
Filename C:\EAC Rips\01 - It Ain't Me Babe.wav
Pre-gap length 0:00:02.00
Peak level 96.6 %
Extraction speed 1.7 X
Track quality 100.0 %
Test CRC EA536CE8
Copy CRC EA536CE8
Track not present in AccurateRip database
Copy OK
Track 2
Filename C:\EAC Rips\02 - Johnny One Time.wav
Pre-gap length 0:00:08.54
Peak level 96.6 %
Extraction speed 2.1 X
Track quality 100.0 %
Test CRC E1607FDD
Copy CRC E1607FDD
Track not present in AccurateRip database
Copy OK
Track 3
Filename C:\EAC Rips\03 - Feeling All Right.wav
Pre-gap length 0:00:06.12
Peak level 96.6 %
Extraction speed 2.2 X
Track quality 100.0 %
Test CRC 61F57520
Copy CRC 61F57520
Track not present in AccurateRip database
Copy OK
Track 4
Filename C:\EAC Rips\04 - Right On.wav
Pre-gap length 0:00:03.86
Peak level 96.6 %
Extraction speed 1.7 X
Track quality 99.9 %
Test CRC E373E16C
Copy CRC E373E16C
Track not present in AccurateRip database
Copy OK
Track 5
Filename C:\EAC Rips\05 - Grits Ain't Groceries (All Around the World).wav
Pre-gap length 0:00:04.00
Peak level 96.6 %
Extraction speed 2.3 X
Track quality 100.0 %
Test CRC CE0379B6
Copy CRC CE0379B6
Track not present in AccurateRip database
Copy OK
Track 6
Filename C:\EAC Rips\06 - Like a Rolling Stone.wav
Pre-gap length 0:00:05.54
Peak level 96.6 %
Extraction speed 2.6 X
Track quality 100.0 %
Test CRC 55032294
Copy CRC 55032294
Track not present in AccurateRip database
Copy OK
Track 7
Filename C:\EAC Rips\07 - Tomorrow on My Mind.wav
Pre-gap length 0:00:02.57
Peak level 88.7 %
Extraction speed 2.8 X
Track quality 100.0 %
Test CRC 2F4D181D
Copy CRC 2F4D181D
Track not present in AccurateRip database
Copy OK
Track 8
Filename C:\EAC Rips\08 - Lodi.wav
Pre-gap length 0:00:09.98
Peak level 96.6 %
Extraction speed 2.9 X
Track quality 100.0 %
Test CRC 12FD6C4B
Copy CRC 12FD6C4B
Track not present in AccurateRip database
Copy OK
Track 9
Filename C:\EAC Rips\09 - Make It with You.wav
Pre-gap length 0:00:07.66
Peak level 96.6 %
Extraction speed 2.8 X
Track quality 100.0 %
Test CRC 487C549C
Copy CRC 487C549C
Track not present in AccurateRip database
Copy OK
None of the tracks are present in the AccurateRip database
No errors occurred
End of status report
---- CUETools DB Plugin V2.1.6
[CTDB TOCID: TOFM5_ymCyPqrrO12WB0KgRBAtk-] disk not present in database
Submit result: TOFM5_ymCyPqrrO12WB0KgRBAtk- has been uploaded
==== Log checksum FD1D7F9FC8076A42FAD7C3602152FF0A90978410B0CD98BD33F6859CF4907670 ====
 
Содержание индексной карты (.CUE)
REM GENRE Soul
REM DATE 1971
REM DISCID 7C082809
REM COMMENT "ExactAudioCopy v1.3"
CATALOG 4995879930403
PERFORMER "Maxine Weldon"
TITLE "Right On"
FILE "01 - It Ain't Me Babe.wav" WAVE
TRACK 01 AUDIO
TITLE "It Ain't Me Babe"
PERFORMER "Maxine Weldon"
INDEX 01 00:00:00
TRACK 02 AUDIO
TITLE "Johnny One Time"
PERFORMER "Maxine Weldon"
INDEX 00 03:26:00
FILE "02 - Johnny One Time.wav" WAVE
INDEX 01 00:00:00
TRACK 03 AUDIO
TITLE "Feeling All Right"
PERFORMER "Maxine Weldon"
INDEX 00 05:15:48
FILE "03 - Feeling All Right.wav" WAVE
INDEX 01 00:00:00
TRACK 04 AUDIO
TITLE "Right On"
PERFORMER "Maxine Weldon"
INDEX 00 04:11:66
FILE "04 - Right On.wav" WAVE
INDEX 01 00:00:00
TRACK 05 AUDIO
TITLE "Grits Ain't Groceries (All Around the World)"
PERFORMER "Maxine Weldon"
INDEX 00 03:58:50
FILE "05 - Grits Ain't Groceries (All Around the World).wav" WAVE
INDEX 01 00:00:00
TRACK 06 AUDIO
TITLE "Like a Rolling Stone"
PERFORMER "Maxine Weldon"
INDEX 00 02:24:33
FILE "06 - Like a Rolling Stone.wav" WAVE
INDEX 01 00:00:00
TRACK 07 AUDIO
TITLE "Tomorrow on My Mind"
PERFORMER "Maxine Weldon"
INDEX 00 03:28:61
FILE "07 - Tomorrow on My Mind.wav" WAVE
INDEX 01 00:00:00
TRACK 08 AUDIO
TITLE "Lodi"
PERFORMER "Maxine Weldon"
INDEX 00 04:05:55
FILE "08 - Lodi.wav" WAVE
INDEX 01 00:00:00
TRACK 09 AUDIO
TITLE "Make It with You"
PERFORMER "Maxine Weldon"
INDEX 00 04:12:61
FILE "09 - Make It with You.wav" WAVE
INDEX 01 00:00:00
 
Состав
Maxine Weldon - vocals
Lawrence Knechtel, Joseph Sample - piano
David Cohen, Jerry Cole - guitar
Tommy Morgan - harmonica
Paul Humphrey, Earl C. Palmer - drums
Carol Kaye, Joe Osborn - bass
John Audino, Paul Hubinon - trumpet, flugelhorn
Plas Johnson - tenor, flute
Clifford Solomon - tenor saxophone, alto saxophone
King Errison - conga
Lew McCreary - trombone
James Horn - saxophone
William Green - tenor saxophone, baritone saxophone, flute
Gary Coleman - vibes, tamborine, shaker
Victor Feldman - vibes, percussion
Anthony Terran - trumpet
Wilton Felder - Fender bass
Artie Butler - arranged, conductor
Bobby Shad - producer
Приватный:
Нет (DHT включён)
Размер:
208.65 Мб (218,789,661 байт) » файлов: 14
Участники:
0 раздают, 0 качают (0 участников всего)
Внешние участники:
3 раздают, 1 качают (4 участников всего) [ Обновить ]
Есть вопросы - пишите личное сообщение пользователю M0p94ok.
14:59
61
Нет комментариев. Ваш будет первым!