Поиск

(Jazz-Funk, Iranian) [CD] Shahram Shabpareh - Shahram - 2013, FLAC (tracks+.cue), lossless

(Jazz-Funk, Iranian) [CD] Shahram Shabpareh - Shahram - 2013, FLAC (tracks+.cue), lossless
Треклист:
Shahram Shabpareh - Shahram
Жанр: Jazz-Funk, Iranian
Носитель: CD
Страна-производитель диска (релиза): Испания
Год издания: 2013
Издатель (лейбл): Pharaway Sounds
Номер по каталогу: PHS011CD
Страна исполнителя (группы): Иран
Аудиокодек: FLAC (*.flac)
Тип рипа: tracks+.cue
Битрейт аудио: lossless
Продолжительность: 37:50
Источник (релизер): improbab
Наличие сканов в содержимом раздачи: да
Треклист:
01. Leila (2:29)
02. Woman (3:55)
03. Salam (4:53)
04. Suzan (2:09)
05. Naw Naw (2:52)
06. Instrumental (2:54)
07. Hel Yo Sar (3:47)
08. Gorg-O Barreh (2:57)
09. Enshaallah (2:40)
10. Dorooghgoo (2:25)
11. Ashegi Ham Haddi Dareh (3:38)
12. 1975 (3:11)
 
Лог создания рипа
X Lossless Decoder version 20161007 (149.3)
XLD extraction logfile from 2017-04-08 21:51:45 +0200
Shahram Shabpareh / Shahram
Used drive : MATSHITA BD-MLT UJ272 (revision 1.01)
Media type : Pressed CD
Ripper mode : XLD Secure Ripper
Disable audio cache : OK for the drive with a cache less than 1375KiB
Make use of C2 pointers : NO
Read offset correction : 103
Max retry count : 20
Gap status : Analyzed, Appended (except HTOA)
TOC of the extracted CD
Track | Start | Length | Start sector | End sector
---------------------------------------------------------
1 | 00:00:00 | 02:29:15 | 0 | 11189
2 | 02:29:15 | 03:55:07 | 11190 | 28821
3 | 06:24:22 | 04:52:54 | 28822 | 50775
4 | 11:17:01 | 02:09:24 | 50776 | 60474
5 | 13:26:25 | 02:51:60 | 60475 | 73359
6 | 16:18:10 | 02:54:21 | 73360 | 86430
7 | 19:12:31 | 03:47:05 | 86431 | 103460
8 | 22:59:36 | 02:57:20 | 103461 | 116755
9 | 25:56:56 | 02:39:59 | 116756 | 128739
10 | 28:36:40 | 02:25:26 | 128740 | 139640
11 | 31:01:66 | 03:37:60 | 139641 | 155975
12 | 34:39:51 | 03:10:52 | 155976 | 170277
AccurateRip Summary (DiscID: 00112e12-009f67b4-aa08de0c)
Track 01 : OK (v2, confidence 1/1)
Track 02 : OK (v2, confidence 1/1)
Track 03 : OK (v2, confidence 1/1)
Track 04 : OK (v2, confidence 1/1)
Track 05 : OK (v2, confidence 1/1)
Track 06 : OK (v2, confidence 1/1)
Track 07 : OK (v2, confidence 1/1)
Track 08 : OK (v2, confidence 1/1)
Track 09 : OK (v2, confidence 1/1)
Track 10 : OK (v2, confidence 1/1)
Track 11 : OK (v2, confidence 1/1)
Track 12 : OK (v2, confidence 1/1)
->All tracks accurately ripped.
All Tracks
Album gain : -8.10 dB
Peak : 0.986725
Statistics
Read error : 0
Jitter error (maybe fixed) : 0
Retry sector count : 0
Damaged sector count : 0
Track 01
Filename : /Volumes/osec/XLDs/Shahram Shabpareh - Shahram (2013) [FLAC]/01 Leila.flac
/Volumes/osec/XLDs/Shahram Shabpareh - Shahram (2013) [MP3 V0]/01 Leila.mp3
/Volumes/osec/XLDs/Shahram Shabpareh - Shahram (2013) [MP3 320]/01 Leila.mp3
Pre-gap length : 00:02:00
Track gain : -8.67 dB
Peak : 0.982361
CRC32 hash (test run) : 19D51581
CRC32 hash : 19D51581
CRC32 hash (skip zero) : C94398EC
AccurateRip v1 signature : 49079A65
AccurateRip v2 signature : AB5C21EF
->Accurately ripped (v2, confidence 1/1)
Statistics
Read error : 0
Jitter error (maybe fixed) : 0
Retry sector count : 0
Damaged sector count : 0
Track 02
Filename : /Volumes/osec/XLDs/Shahram Shabpareh - Shahram (2013) [FLAC]/02 Woman.flac
/Volumes/osec/XLDs/Shahram Shabpareh - Shahram (2013) [MP3 V0]/02 Woman.mp3
/Volumes/osec/XLDs/Shahram Shabpareh - Shahram (2013) [MP3 320]/02 Woman.mp3
Track gain : -8.53 dB
Peak : 0.986725
CRC32 hash (test run) : D7C5F801
CRC32 hash : D7C5F801
CRC32 hash (skip zero) : 40C15CC8
AccurateRip v1 signature : 0C471092
AccurateRip v2 signature : 940B597E
->Accurately ripped (v2, confidence 1/1)
Statistics
Read error : 0
Jitter error (maybe fixed) : 0
Retry sector count : 0
Damaged sector count : 0
Track 03
Filename : /Volumes/osec/XLDs/Shahram Shabpareh - Shahram (2013) [FLAC]/03 Salam.flac
/Volumes/osec/XLDs/Shahram Shabpareh - Shahram (2013) [MP3 V0]/03 Salam.mp3
/Volumes/osec/XLDs/Shahram Shabpareh - Shahram (2013) [MP3 320]/03 Salam.mp3
Track gain : -6.63 dB
Peak : 0.978333
CRC32 hash (test run) : FBA17A73
CRC32 hash : FBA17A73
CRC32 hash (skip zero) : 129C4320
AccurateRip v1 signature : 74F53E55
AccurateRip v2 signature : 7190B1AD
->Accurately ripped (v2, confidence 1/1)
Statistics
Read error : 0
Jitter error (maybe fixed) : 0
Retry sector count : 0
Damaged sector count : 0
Track 04
Filename : /Volumes/osec/XLDs/Shahram Shabpareh - Shahram (2013) [FLAC]/04 Suzan.flac
/Volumes/osec/XLDs/Shahram Shabpareh - Shahram (2013) [MP3 V0]/04 Suzan.mp3
/Volumes/osec/XLDs/Shahram Shabpareh - Shahram (2013) [MP3 320]/04 Suzan.mp3
Track gain : -8.52 dB
Peak : 0.981384
CRC32 hash (test run) : 86A246A5
CRC32 hash : 86A246A5
CRC32 hash (skip zero) : 2FDA9363
AccurateRip v1 signature : 6FFFCD2A
AccurateRip v2 signature : 91CCAB70
->Accurately ripped (v2, confidence 1/1)
Statistics
Read error : 0
Jitter error (maybe fixed) : 0
Retry sector count : 0
Damaged sector count : 0
Track 05
Filename : /Volumes/osec/XLDs/Shahram Shabpareh - Shahram (2013) [FLAC]/05 Naw Naw.flac
/Volumes/osec/XLDs/Shahram Shabpareh - Shahram (2013) [MP3 V0]/05 Naw Naw.mp3
/Volumes/osec/XLDs/Shahram Shabpareh - Shahram (2013) [MP3 320]/05 Naw Naw.mp3
Track gain : -6.79 dB
Peak : 0.980621
CRC32 hash (test run) : 13AE0DB1
CRC32 hash : 13AE0DB1
CRC32 hash (skip zero) : 9D92171E
AccurateRip v1 signature : 4330B836
AccurateRip v2 signature : 2EC879E4
->Accurately ripped (v2, confidence 1/1)
Statistics
Read error : 0
Jitter error (maybe fixed) : 0
Retry sector count : 0
Damaged sector count : 0
Track 06
Filename : /Volumes/osec/XLDs/Shahram Shabpareh - Shahram (2013) [FLAC]/06 Instrumental.flac
/Volumes/osec/XLDs/Shahram Shabpareh - Shahram (2013) [MP3 V0]/06 Instrumental.mp3
/Volumes/osec/XLDs/Shahram Shabpareh - Shahram (2013) [MP3 320]/06 Instrumental.mp3
Track gain : -8.70 dB
Peak : 0.979034
CRC32 hash (test run) : 6BF36EFE
CRC32 hash : 6BF36EFE
CRC32 hash (skip zero) : 7904BBDE
AccurateRip v1 signature : 355A4087
AccurateRip v2 signature : FEA35398
->Accurately ripped (v2, confidence 1/1)
Statistics
Read error : 0
Jitter error (maybe fixed) : 0
Retry sector count : 0
Damaged sector count : 0
Track 07
Filename : /Volumes/osec/XLDs/Shahram Shabpareh - Shahram (2013) [FLAC]/07 Hel Yo Sar.flac
/Volumes/osec/XLDs/Shahram Shabpareh - Shahram (2013) [MP3 V0]/07 Hel Yo Sar.mp3
/Volumes/osec/XLDs/Shahram Shabpareh - Shahram (2013) [MP3 320]/07 Hel Yo Sar.mp3
Track gain : -6.96 dB
Peak : 0.979370
CRC32 hash (test run) : EF024E9B
CRC32 hash : EF024E9B
CRC32 hash (skip zero) : C998CAD1
AccurateRip v1 signature : 248B89CC
AccurateRip v2 signature : 06730AAF
->Accurately ripped (v2, confidence 1/1)
Statistics
Read error : 0
Jitter error (maybe fixed) : 0
Retry sector count : 0
Damaged sector count : 0
Track 08
Filename : /Volumes/osec/XLDs/Shahram Shabpareh - Shahram (2013) [FLAC]/08 Gorg-O Barreh.flac
/Volumes/osec/XLDs/Shahram Shabpareh - Shahram (2013) [MP3 V0]/08 Gorg-O Barreh.mp3
/Volumes/osec/XLDs/Shahram Shabpareh - Shahram (2013) [MP3 320]/08 Gorg-O Barreh.mp3
Track gain : -7.36 dB
Peak : 0.981689
CRC32 hash (test run) : F7133E80
CRC32 hash : F7133E80
CRC32 hash (skip zero) : C49B886C
AccurateRip v1 signature : 0AE4A76F
AccurateRip v2 signature : 4253619E
->Accurately ripped (v2, confidence 1/1)
Statistics
Read error : 0
Jitter error (maybe fixed) : 0
Retry sector count : 0
Damaged sector count : 0
Track 09
Filename : /Volumes/osec/XLDs/Shahram Shabpareh - Shahram (2013) [FLAC]/09 Enshaallah.flac
/Volumes/osec/XLDs/Shahram Shabpareh - Shahram (2013) [MP3 V0]/09 Enshaallah.mp3
/Volumes/osec/XLDs/Shahram Shabpareh - Shahram (2013) [MP3 320]/09 Enshaallah.mp3
Track gain : -7.06 dB
Peak : 0.980011
CRC32 hash (test run) : 3F7950CA
CRC32 hash : 3F7950CA
CRC32 hash (skip zero) : D2BF77CB
AccurateRip v1 signature : 2DD6125D
AccurateRip v2 signature : EB690166
->Accurately ripped (v2, confidence 1/1)
Statistics
Read error : 0
Jitter error (maybe fixed) : 0
Retry sector count : 0
Damaged sector count : 0
Track 10
Filename : /Volumes/osec/XLDs/Shahram Shabpareh - Shahram (2013) [FLAC]/10 Dorooghgoo.flac
/Volumes/osec/XLDs/Shahram Shabpareh - Shahram (2013) [MP3 V0]/10 Dorooghgoo.mp3
/Volumes/osec/XLDs/Shahram Shabpareh - Shahram (2013) [MP3 320]/10 Dorooghgoo.mp3
Track gain : -8.44 dB
Peak : 0.982391
CRC32 hash (test run) : 36E8A4D0
CRC32 hash : 36E8A4D0
CRC32 hash (skip zero) : DD466CC0
AccurateRip v1 signature : 7B93D4A0
AccurateRip v2 signature : E2BA5E21
->Accurately ripped (v2, confidence 1/1)
Statistics
Read error : 0
Jitter error (maybe fixed) : 0
Retry sector count : 0
Damaged sector count : 0
Track 11
Filename : /Volumes/osec/XLDs/Shahram Shabpareh - Shahram (2013) [FLAC]/11 Ashegi Ham Haddi Dareh.flac
/Volumes/osec/XLDs/Shahram Shabpareh - Shahram (2013) [MP3 V0]/11 Ashegi Ham Haddi Dareh.mp3
/Volumes/osec/XLDs/Shahram Shabpareh - Shahram (2013) [MP3 320]/11 Ashegi Ham Haddi Dareh.mp3
Track gain : -8.30 dB
Peak : 0.980194
CRC32 hash (test run) : 8C27D843
CRC32 hash : 8C27D843
CRC32 hash (skip zero) : 846C3C56
AccurateRip v1 signature : A80B9A9B
AccurateRip v2 signature : 08407A32
->Accurately ripped (v2, confidence 1/1)
Statistics
Read error : 0
Jitter error (maybe fixed) : 0
Retry sector count : 0
Damaged sector count : 0
Track 12
Filename : /Volumes/osec/XLDs/Shahram Shabpareh - Shahram (2013) [FLAC]/12 1975.flac
/Volumes/osec/XLDs/Shahram Shabpareh - Shahram (2013) [MP3 V0]/12 1975.mp3
/Volumes/osec/XLDs/Shahram Shabpareh - Shahram (2013) [MP3 320]/12 1975.mp3
Track gain : -9.11 dB
Peak : 0.981598
CRC32 hash (test run) : 0E26B31F
CRC32 hash : 0E26B31F
CRC32 hash (skip zero) : 06759CBD
AccurateRip v1 signature : 431BDEB9
AccurateRip v2 signature : E2184C96
->Accurately ripped (v2, confidence 1/1)
Statistics
Read error : 0
Jitter error (maybe fixed) : 0
Retry sector count : 0
Damaged sector count : 0
No errors occurred
End of status report
-----BEGIN XLD SIGNATURE-----
yfLcoKYJkgUJOgLPWhkQXFNqsKd61.IhP.L2ye4gzfy_TerCWFYz_XVnP2t5lgwEJuAfXQ9X9yt7dHIFQf9WWP4FM3NdMrK.gw5Lb10
-----END XLD SIGNATURE-----
 
Содержание индексной карты (.CUE)
TITLE "Shahram"
PERFORMER "Shahram Shabpareh"
REM GENRE "Funk"
REM DATE "2013"
REM DISCID AA08DE0C
REM REPLAYGAIN_ALBUM_GAIN -8.10 dB
REM REPLAYGAIN_ALBUM_PEAK 0.986725
FILE "01 - Leila.flac" WAVE
TRACK 01 AUDIO
TITLE "Leila"
REM REPLAYGAIN_TRACK_GAIN -8.67 dB
REM REPLAYGAIN_TRACK_PEAK 0.982361
INDEX 01 00:00:00
FILE "02 - Woman.flac" WAVE
TRACK 02 AUDIO
TITLE "Woman"
REM REPLAYGAIN_TRACK_GAIN -8.53 dB
REM REPLAYGAIN_TRACK_PEAK 0.986725
INDEX 01 00:00:00
FILE "03 - Salam.flac" WAVE
TRACK 03 AUDIO
TITLE "Salam"
REM REPLAYGAIN_TRACK_GAIN -6.63 dB
REM REPLAYGAIN_TRACK_PEAK 0.978333
INDEX 01 00:00:00
FILE "04 - Suzan.flac" WAVE
TRACK 04 AUDIO
TITLE "Suzan"
REM REPLAYGAIN_TRACK_GAIN -8.52 dB
REM REPLAYGAIN_TRACK_PEAK 0.981384
INDEX 01 00:00:00
FILE "05 - Naw Naw.flac" WAVE
TRACK 05 AUDIO
TITLE "Naw Naw"
REM REPLAYGAIN_TRACK_GAIN -6.79 dB
REM REPLAYGAIN_TRACK_PEAK 0.980621
INDEX 01 00:00:00
FILE "06 - Instrumental.flac" WAVE
TRACK 06 AUDIO
TITLE "Instrumental"
REM REPLAYGAIN_TRACK_GAIN -8.70 dB
REM REPLAYGAIN_TRACK_PEAK 0.979034
INDEX 01 00:00:00
FILE "07 - Hel Yo Sar.flac" WAVE
TRACK 07 AUDIO
TITLE "Hel Yo Sar"
REM REPLAYGAIN_TRACK_GAIN -6.96 dB
REM REPLAYGAIN_TRACK_PEAK 0.979370
INDEX 01 00:00:00
FILE "08 - Gorg-O Barreh.flac" WAVE
TRACK 08 AUDIO
TITLE "Gorg-O Barreh"
REM REPLAYGAIN_TRACK_GAIN -7.36 dB
REM REPLAYGAIN_TRACK_PEAK 0.981689
INDEX 01 00:00:00
FILE "09 - Enshaallah.flac" WAVE
TRACK 09 AUDIO
TITLE "Enshaallah"
REM REPLAYGAIN_TRACK_GAIN -7.06 dB
REM REPLAYGAIN_TRACK_PEAK 0.980011
INDEX 01 00:00:00
FILE "10 - Dorooghgoo.flac" WAVE
TRACK 10 AUDIO
TITLE "Dorooghgoo"
REM REPLAYGAIN_TRACK_GAIN -8.44 dB
REM REPLAYGAIN_TRACK_PEAK 0.982391
INDEX 01 00:00:00
FILE "11 - Ashegi Ham Haddi Dareh.flac" WAVE
TRACK 11 AUDIO
TITLE "Ashegi Ham Haddi Dareh"
REM REPLAYGAIN_TRACK_GAIN -8.30 dB
REM REPLAYGAIN_TRACK_PEAK 0.980194
INDEX 01 00:00:00
FILE "12 - 1975.flac" WAVE
TRACK 12 AUDIO
TITLE "1975"
REM REPLAYGAIN_TRACK_GAIN -9.11 dB
REM REPLAYGAIN_TRACK_PEAK 0.981598
INDEX 01 00:00:00
 
Отчет CUETools
[CUETools log; Date: 25.11.2017 22:58:14; Version: 2.1.5]
[CTDB TOCID: ZaEm7pvMZQdm2oK5eg1MSz92Mb4-] found.
Track | CTDB Status
1 | (4/4) Accurately ripped
2 | (4/4) Accurately ripped
3 | (4/4) Accurately ripped
4 | (4/4) Accurately ripped
5 | (4/4) Accurately ripped
6 | (4/4) Accurately ripped
7 | (4/4) Accurately ripped
8 | (4/4) Accurately ripped
9 | (4/4) Accurately ripped
10 | (4/4) Accurately ripped
11 | (4/4) Accurately ripped
12 | (4/4) Accurately ripped
[AccurateRip ID: 00112e12-009f67b4-aa08de0c] found.
Track [ CRC | V2 ] Status
01 [49079a65|ab5c21ef] (0+2/2) Accurately ripped
02 [0c471092|940b597e] (0+2/2) Accurately ripped
03 [74f53e55|7190b1ad] (0+2/2) Accurately ripped
04 [6fffcd2a|91ccab70] (0+2/2) Accurately ripped
05 [4330b836|2ec879e4] (0+2/2) Accurately ripped
06 [355a4087|fea35398] (0+2/2) Accurately ripped
07 [248b89cc|06730aaf] (0+2/2) Accurately ripped
08 [0ae4a76f|4253619e] (0+2/2) Accurately ripped
09 [2dd6125d|eb690166] (0+2/2) Accurately ripped
10 [7b93d4a0|e2ba5e21] (0+2/2) Accurately ripped
11 [a80b9a9b|08407a32] (0+2/2) Accurately ripped
12 [431bdeb9|e2184c96] (0+2/2) Accurately ripped
Track Peak [ CRC32 ] [W/O NULL]
-- 98,6 [22F69C11] [7116CB2D]
01 98,2 [19D51581] [C94398EC]
02 98,6 [D7C5F801] [40C15CC8]
03 97,8 [FBA17A73] [129C4320]
04 98,1 [86A246A5] [2FDA9363]
05 98,0 [13AE0DB1] [9D92171E]
06 97,9 [6BF36EFE] [7904BBDE]
07 97,9 [EF024E9B] [C998CAD1]
08 98,1 [F7133E80] [C49B886C]
09 98,0 [3F7950CA] [D2BF77CB]
10 98,2 [36E8A4D0] [DD466CC0]
11 98,0 [8C27D843] [846C3C56]
12 98,1 [0E26B31F] [06759CBD]
 
Об альбоме (сборнике)
You know how record nerds are. They'll gladly tell you that a dawdling Moldovian choir of 70 year old grandmothers is the next brick in your psychfunksplosion journey. But Shahram Shabpareh is the real thing. Colorful arrangements of blurting horns, evil bass grooves, cheesy organs & thick strata of overlapping percussion instruments going off like microwave popcorn. As the leader of an Iranian 60s garage band, the Rebels, and later a 70s solo singer, Shabpareh was never happy just tossing a few moves from Abba in front of whatever was on the local charts already. He wrote & recorded hard rock & funky piano riffs that were built bulldozer tough & would've stuck out in an American trailer park or a London pub just as easily as they did in Tehran. Not that he wasn't afraid to put someone else's idea to good use, as he certainly makes superb use of the Kinks' chords from You Really Got Me. It's more that Shahram's rock cojones have caused him to make blistering music again & again over the years, with little regard for where it comes from. Here's a well-deserved compilation of his best tracks, with insert/booklet with liner notes, which is also available on 180gram vinyl.
Приватный:
Нет (DHT включён)
Размер:
308.30 Мб (323,279,973 байт) » файлов: 25
Участники:
0 раздают, 0 качают (0 участников всего)
Внешние участники:
1 раздают, 0 качают (1 участников всего) [ Обновить ]
No seeders - write a personal message to user M0p94ok. Нет сидеров - пишите личное сообщение пользователю M0p94ok.
14:59
83
Нет комментариев. Ваш будет первым!