Поиск

(Funk, Soul) [CD] Norman Connors - Saturday Night Special (Expanded Edition) - 1975 (2013), FLAC (tracks+.cue), lossless

(Funk, Soul) [CD] Norman Connors - Saturday Night Special (Expanded Edition) - 1975 (2013), FLAC (tracks+.cue), lossless
Треклист:
Norman Connors - Saturday Night Special
Жанр: Funk, Soul
Носитель: CD
Страна-производитель диска (релиза): США
Год издания: 1975 (2013)
Издатель (лейбл): Funky Town Grooves/Buddah Records
Номер по каталогу: FTG 336
Аудиокодек: FLAC (*.flac)
Тип рипа: tracks+.cue
Битрейт аудио: lossless
Продолжительность: 43:31
Источник (релизер): What.CD
Наличие сканов в содержимом раздачи: нет
Треклист:
01. Saturday Night Special (4:39)
02. Dindi (7:09)
03. Maiden Voyage (6:55)
04. Valentine Love (3:51)
05. Akia (3:53)
06. Skin Diver (7:00)
07. Kwasi (3:45)
08. Saturday Night Special (7") (3:10)
09. Valentine Love (7") (3:09)
 
Лог создания рипа
Exact Audio Copy V1.1 from 23. June 2015
EAC extraction logfile from 30. July 2016, 19:45
Norman Connors / Saturday Night Special
Used drive : HL-DT-STDVDRAM GH24NS90 Adapter: 1 ID: 0
Read mode : Secure
Utilize accurate stream : Yes
Defeat audio cache : Yes
Make use of C2 pointers : No
Read offset correction : 6
Overread into Lead-In and Lead-Out : No
Fill up missing offset samples with silence : Yes
Delete leading and trailing silent blocks : No
Null samples used in CRC calculations : Yes
Used interface : Native Win32 interface for Win NT & 2000
Gap handling : Appended to previous track
Used output format : User Defined Encoder
Selected bitrate : 1024 kBit/s
Quality : High
Add ID3 tag : No
Command line compressor : C:\Program Files (x86)\Exact Audio Copy\Flac\flac.exe
Additional command line options : -8 -e -V -T "ARTIST=%artist%" -T "TITLE=%title%" -T "ALBUM=%albumtitle%" -T "DATE=%year%" -T "TRACKNUMBER=%tracknr%" -T "GENRE=%genre%" -T "PERFORMER=%albuminterpret%" -T "COMPOSER=%composer%" %haslyrics%--tag-from-file=LYRICS="%lyricsfile%"%haslyrics% -T "ALBUMARTIST=%albumartist%" -T "DISCNUMBER=%cdnumber%" -T "TOTALDISCS=%totalcds%" -T "TOTALTRACKS=%numtracks%" -T "COMMENT=%comment%" %source% -o %dest%
TOC of the extracted CD
Track | Start | Length | Start sector | End sector
---------------------------------------------------------
1 | 0:00.00 | 4:38.43 | 0 | 20892
2 | 4:38.43 | 7:08.71 | 20893 | 53063
3 | 11:47.39 | 6:54.57 | 53064 | 84170
4 | 18:42.21 | 3:50.72 | 84171 | 101492
5 | 22:33.18 | 3:52.50 | 101493 | 118942
6 | 26:25.68 | 6:59.60 | 118943 | 150427
7 | 33:25.53 | 3:45.27 | 150428 | 167329
8 | 37:11.05 | 3:09.43 | 167330 | 181547
9 | 40:20.48 | 3:08.41 | 181548 | 195688
Track 1
Filename E:\Torrents\Norman Connors - Saturday Night Special (Expanded) [FLAC]\01 - Saturday Night Special.wav
Pre-gap length 0:00:02.00
Peak level 99.9 %
Extraction speed 1.1 X
Track quality 99.9 %
Test CRC A846F6D4
Copy CRC A846F6D4
Accurately ripped (confidence 5) [0433202B] (AR v2)
Copy OK
Track 2
Filename E:\Torrents\Norman Connors - Saturday Night Special (Expanded) [FLAC]\02 - Dindi.wav
Pre-gap length 0:00:01.42
Peak level 98.1 %
Extraction speed 1.3 X
Track quality 99.9 %
Test CRC CCE3FAB2
Copy CRC CCE3FAB2
Accurately ripped (confidence 5) [9A681025] (AR v2)
Copy OK
Track 3
Filename E:\Torrents\Norman Connors - Saturday Night Special (Expanded) [FLAC]\03 - Maiden Voyage.wav
Pre-gap length 0:00:01.42
Peak level 98.4 %
Extraction speed 1.6 X
Track quality 100.0 %
Test CRC 1449E864
Copy CRC 1449E864
Accurately ripped (confidence 5) [DF0A2BF5] (AR v2)
Copy OK
Track 4
Filename E:\Torrents\Norman Connors - Saturday Night Special (Expanded) [FLAC]\04 - Valentine Love.wav
Pre-gap length 0:00:01.42
Peak level 98.4 %
Extraction speed 1.6 X
Track quality 100.0 %
Test CRC 324B5782
Copy CRC 324B5782
Accurately ripped (confidence 5) [F7511962] (AR v2)
Copy OK
Track 5
Filename E:\Torrents\Norman Connors - Saturday Night Special (Expanded) [FLAC]\05 - Akia.wav
Pre-gap length 0:00:01.42
Peak level 98.7 %
Extraction speed 1.7 X
Track quality 100.0 %
Test CRC C3578876
Copy CRC C3578876
Accurately ripped (confidence 5) [45F082EC] (AR v2)
Copy OK
Track 6
Filename E:\Torrents\Norman Connors - Saturday Night Special (Expanded) [FLAC]\06 - Skin Diver.wav
Pre-gap length 0:00:01.42
Peak level 98.0 %
Extraction speed 1.9 X
Track quality 100.0 %
Test CRC 3D9D3C4B
Copy CRC 3D9D3C4B
Accurately ripped (confidence 5) [AC665BFE] (AR v2)
Copy OK
Track 7
Filename E:\Torrents\Norman Connors - Saturday Night Special (Expanded) [FLAC]\07 - Kwasi.wav
Pre-gap length 0:00:01.42
Peak level 99.6 %
Extraction speed 1.9 X
Track quality 100.0 %
Test CRC D99A191E
Copy CRC D99A191E
Accurately ripped (confidence 5) [0F6E074A] (AR v2)
Copy OK
Track 8
Filename E:\Torrents\Norman Connors - Saturday Night Special (Expanded) [FLAC]\08 - Saturday Night Special (7'').wav
Pre-gap length 0:00:01.42
Peak level 98.9 %
Extraction speed 1.6 X
Track quality 99.9 %
Test CRC C5959BDC
Copy CRC C5959BDC
Accurately ripped (confidence 5) [B7334AEF] (AR v2)
Copy OK
Track 9
Filename E:\Torrents\Norman Connors - Saturday Night Special (Expanded) [FLAC]\09 - Valentine Love (7'').wav
Pre-gap length 0:00:01.42
Peak level 98.3 %
Extraction speed 1.7 X
Track quality 99.9 %
Test CRC 608DC17B
Copy CRC 608DC17B
Accurately ripped (confidence 5) [1F706DFE] (AR v2)
Copy OK
All tracks accurately ripped
No errors occurred
End of status report
---- CUETools DB Plugin V2.1.6
[CTDB TOCID: ak0PF0rLfFFMThz.__tkBTbHkGM-] found
Submit result: ak0PF0rLfFFMThz.__tkBTbHkGM- has been confirmed
Track | CTDB Status
1 | (2/2) Accurately ripped
2 | (2/2) Accurately ripped
3 | (2/2) Accurately ripped
4 | (2/2) Accurately ripped
5 | (2/2) Accurately ripped
6 | (2/2) Accurately ripped
7 | (2/2) Accurately ripped
8 | (2/2) Accurately ripped
9 | (2/2) Accurately ripped
==== Log checksum F24619FA9DFE1EEBA104E638A97BD8556EA0ED117C939787A61F27C7B227F1EC ====
 
Содержание индексной карты (.CUE)
REM GENRE Jazz
REM DATE 1975
REM DISCID 640A3109
REM COMMENT "ExactAudioCopy v1.1"
PERFORMER "Norman Connors"
TITLE "Saturday Night Special"
FILE "01 - Saturday Night Special.wav" WAVE
TRACK 01 AUDIO
TITLE "Saturday Night Special"
PERFORMER "Norman Connors"
INDEX 01 00:00:00
TRACK 02 AUDIO
TITLE "Dindi"
PERFORMER "Norman Connors"
INDEX 00 04:37:11
FILE "02 - Dindi.wav" WAVE
INDEX 01 00:00:00
TRACK 03 AUDIO
TITLE "Maiden Voyage"
PERFORMER "Norman Connors"
INDEX 00 07:07:39
FILE "03 - Maiden Voyage.wav" WAVE
INDEX 01 00:00:00
TRACK 04 AUDIO
TITLE "Valentine Love"
PERFORMER "Norman Connors"
INDEX 00 06:53:25
FILE "04 - Valentine Love.wav" WAVE
INDEX 01 00:00:00
TRACK 05 AUDIO
TITLE "Akia"
PERFORMER "Norman Connors"
INDEX 00 03:49:40
FILE "05 - Akia.wav" WAVE
INDEX 01 00:00:00
TRACK 06 AUDIO
TITLE "Skin Diver"
PERFORMER "Norman Connors"
INDEX 00 03:51:18
FILE "06 - Skin Diver.wav" WAVE
INDEX 01 00:00:00
TRACK 07 AUDIO
TITLE "Kwasi"
PERFORMER "Norman Connors"
INDEX 00 06:58:28
FILE "07 - Kwasi.wav" WAVE
INDEX 01 00:00:00
TRACK 08 AUDIO
TITLE "Saturday Night Special (7'')"
PERFORMER "Norman Connors"
INDEX 00 03:43:70
FILE "08 - Saturday Night Special (7'').wav" WAVE
INDEX 01 00:00:00
TRACK 09 AUDIO
TITLE "Valentine Love (7'')"
PERFORMER "Norman Connors"
INDEX 00 03:08:11
FILE "09 - Valentine Love (7'').wav" WAVE
INDEX 01 00:00:00
 
Отчет CUETools
[CUETools log; Date: 04.12.2017 18:36:25; Version: 2.1.5]
[CTDB TOCID: ak0PF0rLfFFMThz.__tkBTbHkGM-] found.
Track | CTDB Status
1 | (5/5) Accurately ripped
2 | (5/5) Accurately ripped
3 | (5/5) Accurately ripped
4 | (5/5) Accurately ripped
5 | (5/5) Accurately ripped
6 | (5/5) Accurately ripped
7 | (5/5) Accurately ripped
8 | (5/5) Accurately ripped
9 | (5/5) Accurately ripped
[AccurateRip ID: 00106197-00761f3c-640a3109] found.
Track [ CRC | V2 ] Status
01 [c5a6167b|0433202b] (0+6/6) Accurately ripped
02 [515517c3|9a681025] (0+6/6) Accurately ripped
03 [20c04f2f|df0a2bf5] (0+6/6) Accurately ripped
04 [ddec29bb|f7511962] (0+6/6) Accurately ripped
05 [28c17fd4|45f082ec] (0+6/6) Accurately ripped
06 [21666dd8|ac665bfe] (0+6/6) Accurately ripped
07 [1890a7bd|0f6e074a] (0+6/6) Accurately ripped
08 [0dca45cd|b7334aef] (0+6/6) Accurately ripped
09 [23ec4815|1f706dfe] (0+6/6) Accurately ripped
Track Peak [ CRC32 ] [W/O NULL] [ LOG ]
-- 99,9 [8A840901] [038D5EAD]
01 99,9 [A846F6D4] [A02BBD74] CRC32
02 98,1 [CCE3FAB2] [7DBCB9E3] CRC32
03 98,4 [1449E864] [BBCEC047] CRC32
04 98,4 [324B5782] [B5849F3F] CRC32
05 98,7 [C3578876] [18DD7BE3] CRC32
06 98,0 [3D9D3C4B] [DC967D4E] CRC32
07 99,6 [D99A191E] [494CE483] CRC32
08 98,9 [C5959BDC] [B2BA675B] CRC32
09 98,3 [608DC17B] [E6827117] CRC32
 
AllMusic Review by Andy Kellman
Connors' strong Saturday Night Special is most notable for "Valentine Love," a Top Ten black singles hit. The romantic ballad, a duet between Michael Henderson and Jean Carn, arrived in time for February 14 and also peaked on the Top 100 of the pop chart. One can't help but feel that the whole LP is truly Carn's show, as she contributes her rich voice to a number of stylistically varied numbers. Whether belting out in front of industrial-strength funk fusion ("Saturday Night Special"; watch out for Reggie Lucas' needling guitar solo here), sliding through breezy jazz (a rendition of Jobim's "Dindi"), or slipping into some ethereal colorings (a take on Herbie Hancock's "Maiden Voyage"), Carn proves herself to be an extremely versatile vocalist, equally adept with each approach. "Skin Diver," penned by Harry "We Live in Brooklyn, Baby" Whitaker and Dwight Carson, is the best of the lot -- a slowly simmering number that features Carn at her soaring best. Hancock contributes piano to "Kwasi," a painfully brief fusion cut that begins with a two-minute Connors drum solo and ends after another two minutes, just when it begins to really cook.
Приватный:
Нет (DHT включён)
Размер:
271.03 Мб (284,198,639 байт) » файлов: 18
Участники:
0 раздают, 0 качают (0 участников всего)
Внешние участники:
10 раздают, 3 качают (13 участников всего) [ Обновить ]
Есть вопросы - пишите личное сообщение пользователю M0p94ok.
15:03
50
Нет комментариев. Ваш будет первым!