Поиск

(Funk, Soul) [CD] Norman Connors - Take It to the Limit (Expanded Edition) - 1980 (2013), FLAC (tracks+.cue), lossless

(Funk, Soul) [CD] Norman Connors - Take It to the Limit (Expanded Edition) - 1980 (2013), FLAC (tracks+.cue), lossless
Треклист:
Norman Connors - Take It to the Limit
Жанр: Funk, Soul
Носитель: CD
Страна-производитель диска (релиза): США
Год издания: 1980 (2013)
Издатель (лейбл): Funky Town Grooves/Arista
Номер по каталогу: FTG 338
Аудиокодек: FLAC (*.flac)
Тип рипа: tracks+.cue
Битрейт аудио: lossless
Продолжительность: 45:04
Источник (релизер): What.CD
Наличие сканов в содержимом раздачи: нет
Треклист:
01. Take It to the Limit (3:54)
02. Melancholy Fire (3:59)
03. You've Been on My Mind (4:22)
04. I Don't Need Nobody Else (3:51)
05. Justify (3:49)
06. Black Cow (4:56)
07. You Bring Me Joy (3:38)
08. Everywhere Inside of Me (4:50)
09. Melancholy Fire (7" Version) (3:51)
10. Take It to the Limit (12" Version) (4:19)
11. Take It to the Limit (7" Version) (3:35)
 
Лог создания рипа
Exact Audio Copy V1.1 from 23. June 2015
EAC extraction logfile from 30. July 2016, 17:17
Norman Connors / Take It To The Limit (Expanded Edition)
Used drive : HL-DT-STDVDRAM GH24NS90 Adapter: 1 ID: 0
Read mode : Secure
Utilize accurate stream : Yes
Defeat audio cache : Yes
Make use of C2 pointers : No
Read offset correction : 6
Overread into Lead-In and Lead-Out : No
Fill up missing offset samples with silence : Yes
Delete leading and trailing silent blocks : No
Null samples used in CRC calculations : Yes
Used interface : Native Win32 interface for Win NT & 2000
Gap handling : Appended to previous track
Used output format : User Defined Encoder
Selected bitrate : 1024 kBit/s
Quality : High
Add ID3 tag : No
Command line compressor : C:\Program Files (x86)\Exact Audio Copy\Flac\flac.exe
Additional command line options : -8 -e -V -T "ARTIST=%artist%" -T "TITLE=%title%" -T "ALBUM=%albumtitle%" -T "DATE=%year%" -T "TRACKNUMBER=%tracknr%" -T "GENRE=%genre%" -T "PERFORMER=%albuminterpret%" -T "COMPOSER=%composer%" %haslyrics%--tag-from-file=LYRICS="%lyricsfile%"%haslyrics% -T "ALBUMARTIST=%albumartist%" -T "DISCNUMBER=%cdnumber%" -T "TOTALDISCS=%totalcds%" -T "TOTALTRACKS=%numtracks%" -T "COMMENT=%comment%" %source% -o %dest%
TOC of the extracted CD
Track | Start | Length | Start sector | End sector
---------------------------------------------------------
1 | 0:00.00 | 3:53.39 | 0 | 17513
2 | 3:53.39 | 3:58.63 | 17514 | 35426
3 | 7:52.27 | 4:22.29 | 35427 | 55105
4 | 12:14.56 | 3:50.44 | 55106 | 72399
5 | 16:05.25 | 3:49.15 | 72400 | 89589
6 | 19:54.40 | 4:55.57 | 89590 | 111771
7 | 24:50.22 | 3:37.67 | 111772 | 128113
8 | 28:28.14 | 4:49.74 | 128114 | 149862
9 | 33:18.13 | 3:50.61 | 149863 | 167173
10 | 37:08.74 | 4:18.67 | 167174 | 186590
11 | 41:27.66 | 3:34.65 | 186591 | 202705
Track 1
Filename E:\Torrents\Norman Connors - Take It To The Limit [Expanded Edition] [FLAC]\01 - Take It To The Limit.wav
Pre-gap length 0:00:02.00
Peak level 100.0 %
Extraction speed 1.1 X
Track quality 100.0 %
Test CRC 77C59070
Copy CRC 77C59070
Accurately ripped (confidence 5) [E341AAA8] (AR v2)
Copy OK
Track 2
Filename E:\Torrents\Norman Connors - Take It To The Limit [Expanded Edition] [FLAC]\02 - Melancholy Fire.wav
Pre-gap length 0:00:01.42
Peak level 100.0 %
Extraction speed 1.3 X
Track quality 100.0 %
Test CRC 353A492D
Copy CRC 353A492D
Accurately ripped (confidence 5) [718804D8] (AR v2)
Copy OK
Track 3
Filename E:\Torrents\Norman Connors - Take It To The Limit [Expanded Edition] [FLAC]\03 - You've Been On My Mind.wav
Pre-gap length 0:00:01.42
Peak level 99.4 %
Extraction speed 1.4 X
Track quality 100.0 %
Test CRC 422DB2FC
Copy CRC 422DB2FC
Accurately ripped (confidence 5) [09BF89FD] (AR v2)
Copy OK
Track 4
Filename E:\Torrents\Norman Connors - Take It To The Limit [Expanded Edition] [FLAC]\04 - I Don't Need Nobody Else.wav
Pre-gap length 0:00:01.42
Peak level 98.7 %
Extraction speed 1.5 X
Track quality 100.0 %
Test CRC 5984816A
Copy CRC 5984816A
Accurately ripped (confidence 5) [613A1F8A] (AR v2)
Copy OK
Track 5
Filename E:\Torrents\Norman Connors - Take It To The Limit [Expanded Edition] [FLAC]\05 - Justify.wav
Pre-gap length 0:00:01.42
Peak level 100.0 %
Extraction speed 1.6 X
Track quality 100.0 %
Test CRC D30973CE
Copy CRC D30973CE
Accurately ripped (confidence 5) [576B0FCC] (AR v2)
Copy OK
Track 6
Filename E:\Torrents\Norman Connors - Take It To The Limit [Expanded Edition] [FLAC]\06 - Black Cow.wav
Pre-gap length 0:00:01.42
Peak level 100.0 %
Extraction speed 1.7 X
Track quality 100.0 %
Test CRC 4BEE3CDE
Copy CRC 4BEE3CDE
Accurately ripped (confidence 5) [91654D17] (AR v2)
Copy OK
Track 7
Filename E:\Torrents\Norman Connors - Take It To The Limit [Expanded Edition] [FLAC]\07 - You Bring Me Joy.wav
Pre-gap length 0:00:01.42
Peak level 99.5 %
Extraction speed 1.7 X
Track quality 100.0 %
Test CRC 38D8E237
Copy CRC 38D8E237
Accurately ripped (confidence 5) [4E2C5ECD] (AR v2)
Copy OK
Track 8
Filename E:\Torrents\Norman Connors - Take It To The Limit [Expanded Edition] [FLAC]\08 - Everywhere Inside Of Me.wav
Pre-gap length 0:00:01.42
Peak level 99.4 %
Extraction speed 1.9 X
Track quality 100.0 %
Test CRC BCBD2C1F
Copy CRC BCBD2C1F
Accurately ripped (confidence 5) [59843922] (AR v2)
Copy OK
Track 9
Filename E:\Torrents\Norman Connors - Take It To The Limit [Expanded Edition] [FLAC]\09 - Melancholy Fire {7'' Version}.wav
Pre-gap length 0:00:01.42
Peak level 100.0 %
Extraction speed 1.9 X
Track quality 100.0 %
Test CRC F79E848A
Copy CRC F79E848A
Accurately ripped (confidence 5) [03C81C72] (AR v2)
Copy OK
Track 10
Filename E:\Torrents\Norman Connors - Take It To The Limit [Expanded Edition] [FLAC]\10 - Take It To The Limit {12'' Version}.wav
Pre-gap length 0:00:01.42
Peak level 98.6 %
Extraction speed 2.0 X
Track quality 100.0 %
Test CRC FD128683
Copy CRC FD128683
Accurately ripped (confidence 5) [7B807480] (AR v2)
Copy OK
Track 11
Filename E:\Torrents\Norman Connors - Take It To The Limit [Expanded Edition] [FLAC]\11 - Take It To The Limit {7'' Version}.wav
Pre-gap length 0:00:01.42
Peak level 100.0 %
Extraction speed 2.0 X
Track quality 100.0 %
Test CRC 091239E7
Copy CRC 091239E7
Accurately ripped (confidence 4) [8CE38AE3] (AR v2)
Copy OK
All tracks accurately ripped
No errors occurred
End of status report
---- CUETools DB Plugin V2.1.6
[CTDB TOCID: 85zMuc.yv352EijP.1jv3Wjoa.o-] found
Submit result: 85zMuc.yv352EijP.1jv3Wjoa.o- has been confirmed
Track | CTDB Status
1 | (2/2) Accurately ripped
2 | (2/2) Accurately ripped
3 | (2/2) Accurately ripped
4 | (2/2) Accurately ripped
5 | (2/2) Accurately ripped
6 | (2/2) Accurately ripped
7 | (2/2) Accurately ripped
8 | (2/2) Accurately ripped
9 | (2/2) Accurately ripped
10 | (2/2) Accurately ripped
11 | (2/2) Accurately ripped
==== Log checksum 4396B2F17C35EC5E386E3C837B7FCB1745A0AF57EE9CBFEA827267B0A8F439AE ====
 
Содержание индексной карты (.CUE)
REM GENRE Jazz
REM DATE 1980
REM DISCID 8B0A8E0B
REM COMMENT "ExactAudioCopy v1.1"
PERFORMER "Norman Connors"
TITLE "Take It to the Limit"
FILE "01 - Take It to the Limit.wav" WAVE
TRACK 01 AUDIO
TITLE "Take It to the Limit"
PERFORMER "Norman Connors"
INDEX 01 00:00:00
TRACK 02 AUDIO
TITLE "Melancholy Fire"
PERFORMER "Norman Connors"
INDEX 00 03:52:07
FILE "02 - Melancholy Fire.wav" WAVE
INDEX 01 00:00:00
TRACK 03 AUDIO
TITLE "You've Been on My Mind"
PERFORMER "Norman Connors"
INDEX 00 03:57:31
FILE "03 - You've Been on My Mind.wav" WAVE
INDEX 01 00:00:00
TRACK 04 AUDIO
TITLE "I Don't Need Nobody Else"
PERFORMER "Norman Connors"
INDEX 00 04:20:72
FILE "04 - I Don't Need Nobody Else.wav" WAVE
INDEX 01 00:00:00
TRACK 05 AUDIO
TITLE "Justify"
PERFORMER "Norman Connors"
INDEX 00 03:49:12
FILE "05 - Justify.wav" WAVE
INDEX 01 00:00:00
TRACK 06 AUDIO
TITLE "Black Cow"
PERFORMER "Norman Connors"
INDEX 00 03:47:58
FILE "06 - Black Cow.wav" WAVE
INDEX 01 00:00:00
TRACK 07 AUDIO
TITLE "You Bring Me Joy"
PERFORMER "Norman Connors"
INDEX 00 04:54:25
FILE "07 - You Bring Me Joy.wav" WAVE
INDEX 01 00:00:00
TRACK 08 AUDIO
TITLE "Everywhere Inside of Me"
PERFORMER "Norman Connors"
INDEX 00 03:36:35
FILE "08 - Everywhere Inside of Me.wav" WAVE
INDEX 01 00:00:00
TRACK 09 AUDIO
TITLE "Melancholy Fire (7'' Version)"
PERFORMER "Norman Connors"
INDEX 00 04:48:42
FILE "09 - Melancholy Fire (7'' Version).wav" WAVE
INDEX 01 00:00:00
TRACK 10 AUDIO
TITLE "Take It to the Limit (12'' Version)"
PERFORMER "Norman Connors"
INDEX 00 03:49:29
FILE "10 - Take It to the Limit (12'' Version).wav" WAVE
INDEX 01 00:00:00
TRACK 11 AUDIO
TITLE "Take It to the Limit (7'' Version)"
PERFORMER "Norman Connors"
INDEX 00 04:17:35
FILE "11 - Take It to the Limit (7'' Version).wav" WAVE
INDEX 01 00:00:00
 
Отчет CUETools
[CUETools log; Date: 04.12.2017 18:51:22; Version: 2.1.5]
[CTDB TOCID: 85zMuc.yv352EijP.1jv3Wjoa.o-] found.
Track | CTDB Status
1 | (3/3) Accurately ripped
2 | (3/3) Accurately ripped
3 | (3/3) Accurately ripped
4 | (3/3) Accurately ripped
5 | (3/3) Accurately ripped
6 | (3/3) Accurately ripped
7 | (3/3) Accurately ripped
8 | (3/3) Accurately ripped
9 | (3/3) Accurately ripped
10 | (3/3) Accurately ripped
11 | (3/3) Accurately ripped
[AccurateRip ID: 00128f01-00a158f6-8b0a8e0b] found.
Track [ CRC | V2 ] Status
01 [60183059|e341aaa8] (0+5/5) Accurately ripped
02 [ba65196c|718804d8] (0+5/5) Accurately ripped
03 [c30e7ff5|09bf89fd] (0+5/5) Accurately ripped
04 [b27c1f1f|613a1f8a] (0+5/5) Accurately ripped
05 [dec610f2|576b0fcc] (0+5/5) Accurately ripped
06 [2d33d3b8|91654d17] (0+5/5) Accurately ripped
07 [a01b7165|4e2c5ecd] (0+5/5) Accurately ripped
08 [980969ed|59843922] (0+5/5) Accurately ripped
09 [cb6b8c55|03c81c72] (0+5/5) Accurately ripped
10 [124e414f|7b807480] (0+5/5) Accurately ripped
11 [7d3812ec|8ce38ae3] (0+4/4) Accurately ripped
Track Peak [ CRC32 ] [W/O NULL] [ LOG ]
-- 100,0 [E6F82552] [C788932A]
01 100,0 [77C59070] [7142DD57] CRC32
02 100,0 [353A492D] [40A949A0] CRC32
03 99,4 [422DB2FC] [9E8F1F9F] CRC32
04 98,7 [5984816A] [45ED3DFC] CRC32
05 100,0 [D30973CE] [D4757B8B] CRC32
06 100,0 [4BEE3CDE] [D0D70C73] CRC32
07 99,5 [38D8E237] [8699AC2A] CRC32
08 99,4 [BCBD2C1F] [16E70D40] CRC32
09 100,0 [F79E848A] [896AC781] CRC32
10 98,6 [FD128683] [FC304D7E] CRC32
11 100,0 [091239E7] [E01E7E33] CRC32
 
AllMusic Review by Andy Kellman
Drummer and stellar lineup assembler Norman Connors landed on Arista for Take It to the Limit, an album that continued the man's embrace of smooth R&B and gradual abandonment of jazz. The roster here is extremely lengthy; not only is there a group numbering at about a dozen that's dubbed the Starship Orchestra, but there's well over 30 other (!) guests who pop in and out of the mix in various capacities. Both the title track (featuring Adaritha on vocals) and "Melancholy Fire" (Glenn Jones) rightfully cracked the Top 30 of the black singles chart, but a small clutch of other gems deserved similar achievements. "I Don't Need Nobody Else," sung by Al Johnson (arranger and conductor of half the album's cuts), sparkles brightly, while Adaritha's "Justify" is just as gorgeous as the album's hit singles. One minor disappointment is Leon Ware's set-closing "Everywhere Inside of Me," which falls toward the sappy side. One major dud is a plonking cover of Steely Dan's "Black Cow," which has inexplicably shown up on a number of Connors anthologies. Six out of eight ain't bad by any stretch.
Приватный:
Нет (DHT включён)
Размер:
311.61 Мб (326,744,051 байт) » файлов: 19
Участники:
0 раздают, 0 качают (0 участников всего)
Внешние участники:
7 раздают, 2 качают (9 участников всего) [ Обновить ]
Есть вопросы - пишите личное сообщение пользователю M0p94ok.
15:03
78
Нет комментариев. Ваш будет первым!