Поиск

(Funk, Soul) [CD] Norman Connors - Romantic Journey (Expanded Edition) - 1977 (2013), FLAC (tracks+.cue), lossless

(Funk, Soul) [CD] Norman Connors - Romantic Journey (Expanded Edition) - 1977 (2013), FLAC (tracks+.cue), lossless
Треклист:
Norman Connors - Romantic Journey
Жанр: Funk, Soul
Носитель: CD
Страна-производитель диска (релиза): США
Год издания: 1977 (2013)
Издатель (лейбл): Funky Town Grooves/Buddah Records
Номер по каталогу: FTG 337
Аудиокодек: FLAC (*.flac)
Тип рипа: tracks+.cue
Битрейт аудио: lossless
Продолжительность: 51:02
Источник (релизер): mustbethemusic
Наличие сканов в содержимом раздачи: нет
Треклист:
01. You Are Everything (7:02)
02. Once I've Been There (5:50)
03. Destination Moon (4:39)
04. Romantic Journey (5:25)
05. Last Tango in Paris (6:45)
06. For You Everything (5:53)
07. Thembi (8:09)
08. Once I've Been There (7" Version) (3:40)
09. For You Everything (7" Version) (3:39)
 
Лог создания рипа
Exact Audio Copy V1.3 from 2. September 2016
EAC extraction logfile from 14. March 2017, 12:53
Norman Connors / Romantic Journey
Used drive : HP DVD Writer 1260t Adapter: 1 ID: 0
Read mode : Secure
Utilize accurate stream : Yes
Defeat audio cache : Yes
Make use of C2 pointers : No
Read offset correction : 6
Overread into Lead-In and Lead-Out : No
Fill up missing offset samples with silence : Yes
Delete leading and trailing silent blocks : No
Null samples used in CRC calculations : Yes
Used interface : Native Win32 interface for Win NT & 2000
Gap handling : Appended to previous track
Used output format : User Defined Encoder
Selected bitrate : 128 kBit/s
Quality : High
Add ID3 tag : No
Command line compressor : C:\Program Files (x86)\Exact Audio Copy\Flac\flac.exe
Additional command line options : -8 -V -T "ARTIST=%artist%" -T "TITLE=%title%" -T "ALBUM=%albumtitle%" -T "DATE=%year%" -T "TRACKNUMBER=%tracknr%" -T "GENRE=%genre%" -T "PERFORMER=%albuminterpret%" -T "COMPOSER=%composer%" %haslyrics%--tag-from-file=LYRICS="%lyricsfile%"%haslyrics% -T "ALBUMARTIST=%albumartist%" -T "DISCNUMBER=%cdnumber%" -T "TOTALDISCS=%totalcds%" -T "TOTALTRACKS=%numtracks%" -T "COMMENT=%comment%" %source% -o %dest%
TOC of the extracted CD
Track | Start | Length | Start sector | End sector
---------------------------------------------------------
1 | 0:00.00 | 7:02.19 | 0 | 31668
2 | 7:02.19 | 5:49.50 | 31669 | 57893
3 | 12:51.69 | 4:38.68 | 57894 | 78811
4 | 17:30.62 | 5:25.32 | 78812 | 103218
5 | 22:56.19 | 6:45.19 | 103219 | 133612
6 | 29:41.38 | 5:53.18 | 133613 | 160105
7 | 35:34.56 | 8:08.47 | 160106 | 196752
8 | 43:43.28 | 3:39.54 | 196753 | 213231
9 | 47:23.07 | 3:38.47 | 213232 | 229628
Track 1
Filename F:\Music Place\FLAC & WAV\NORMAN CONNORS\Norman Connors - Romantic Journey (1977)[FTG FTG337][2013 FLAC]\01. Norman Connors - You Are Everything.wav
Pre-gap length 0:00:02.00
Peak level 55.9 %
Extraction speed 4.2 X
Track quality 100.0 %
Test CRC 598FC57B
Copy CRC 598FC57B
Accurately ripped (confidence 3) [538489FF] (AR v2)
Copy OK
Track 2
Filename F:\Music Place\FLAC & WAV\NORMAN CONNORS\Norman Connors - Romantic Journey (1977)[FTG FTG337][2013 FLAC]\02. Norman Connors - Once I've Been There.wav
Peak level 55.9 %
Extraction speed 4.8 X
Track quality 100.0 %
Test CRC B9551BF3
Copy CRC B9551BF3
Accurately ripped (confidence 3) [6C09988C] (AR v2)
Copy OK
Track 3
Filename F:\Music Place\FLAC & WAV\NORMAN CONNORS\Norman Connors - Romantic Journey (1977)[FTG FTG337][2013 FLAC]\03. Norman Connors - Destination Moon.wav
Peak level 55.9 %
Extraction speed 5.0 X
Track quality 100.0 %
Test CRC 22FC268C
Copy CRC 22FC268C
Accurately ripped (confidence 3) [6ED51C5E] (AR v2)
Copy OK
Track 4
Filename F:\Music Place\FLAC & WAV\NORMAN CONNORS\Norman Connors - Romantic Journey (1977)[FTG FTG337][2013 FLAC]\04. Norman Connors - Romantic Journey.wav
Peak level 55.9 %
Extraction speed 5.5 X
Track quality 100.0 %
Test CRC 56AFB714
Copy CRC 56AFB714
Accurately ripped (confidence 3) [1B442F70] (AR v2)
Copy OK
Track 5
Filename F:\Music Place\FLAC & WAV\NORMAN CONNORS\Norman Connors - Romantic Journey (1977)[FTG FTG337][2013 FLAC]\05. Norman Connors - Last Tango In Paris.wav
Peak level 55.9 %
Extraction speed 6.0 X
Track quality 100.0 %
Test CRC FE8FDCDE
Copy CRC FE8FDCDE
Accurately ripped (confidence 3) [3AC87BBD] (AR v2)
Copy OK
Track 6
Filename F:\Music Place\FLAC & WAV\NORMAN CONNORS\Norman Connors - Romantic Journey (1977)[FTG FTG337][2013 FLAC]\06. Norman Connors - For You Everything.wav
Peak level 55.9 %
Extraction speed 5.4 X
Track quality 99.9 %
Test CRC BE0C49D4
Copy CRC BE0C49D4
Accurately ripped (confidence 3) [94FF637C] (AR v2)
Copy OK
Track 7
Filename F:\Music Place\FLAC & WAV\NORMAN CONNORS\Norman Connors - Romantic Journey (1977)[FTG FTG337][2013 FLAC]\07. Norman Connors - Thembi.wav
Peak level 55.9 %
Extraction speed 6.9 X
Track quality 100.0 %
Test CRC F208E024
Copy CRC F208E024
Accurately ripped (confidence 3) [117AE980] (AR v2)
Copy OK
Track 8
Filename F:\Music Place\FLAC & WAV\NORMAN CONNORS\Norman Connors - Romantic Journey (1977)[FTG FTG337][2013 FLAC]\08. Norman Connors - Once I've Been There (7'' Version).wav
Peak level 55.9 %
Extraction speed 6.5 X
Track quality 100.0 %
Test CRC 4091A2A8
Copy CRC 4091A2A8
Accurately ripped (confidence 3) [378E753A] (AR v2)
Copy OK
Track 9
Filename F:\Music Place\FLAC & WAV\NORMAN CONNORS\Norman Connors - Romantic Journey (1977)[FTG FTG337][2013 FLAC]\09. Norman Connors - For You Everything (7'' Version).wav
Pre-gap length 0:00:05.92
Peak level 55.9 %
Extraction speed 6.9 X
Track quality 100.0 %
Test CRC AF5FDCEF
Copy CRC AF5FDCEF
Accurately ripped (confidence 3) [6CB36B92] (AR v2)
Copy OK
All tracks accurately ripped
No errors occurred
End of status report
---- CUETools DB Plugin V2.1.6
[CTDB TOCID: 5Bd3z9w4lkMlWsiAsPbVhX7BZGU-] found
Submit result: 5Bd3z9w4lkMlWsiAsPbVhX7BZGU- has been confirmed
Track | CTDB Status
1 | (4/4) Accurately ripped
2 | (4/4) Accurately ripped
3 | (4/4) Accurately ripped
4 | (4/4) Accurately ripped
5 | (4/4) Accurately ripped
6 | (4/4) Accurately ripped
7 | (4/4) Accurately ripped
8 | (4/4) Accurately ripped
9 | (4/4) Accurately ripped
==== Log checksum EA7CB68A99D35A3D9A724E66FE4CD9E3A1D574A778450F9785461910BDBFF296 ====
 
Содержание индексной карты (.CUE)
REM GENRE Jazz
REM DATE 1977
REM DISCID 790BF509
REM COMMENT "ExactAudioCopy v1.3"
PERFORMER "Norman Connors"
TITLE "Romantic Journey"
FILE "01 - You Are Everything.wav" WAVE
TRACK 01 AUDIO
TITLE "You Are Everything"
PERFORMER "Norman Connors"
INDEX 01 00:00:00
FILE "02 - Once I've Been There.wav" WAVE
TRACK 02 AUDIO
TITLE "Once I've Been There"
PERFORMER "Norman Connors"
INDEX 01 00:00:00
FILE "03 - Destination Moon.wav" WAVE
TRACK 03 AUDIO
TITLE "Destination Moon"
PERFORMER "Norman Connors"
INDEX 01 00:00:00
FILE "04 - Romantic Journey.wav" WAVE
TRACK 04 AUDIO
TITLE "Romantic Journey"
PERFORMER "Norman Connors"
INDEX 01 00:00:00
FILE "05 - Last Tango in Paris.wav" WAVE
TRACK 05 AUDIO
TITLE "Last Tango in Paris"
PERFORMER "Norman Connors"
INDEX 01 00:00:00
FILE "06 - For You Everything.wav" WAVE
TRACK 06 AUDIO
TITLE "For You Everything"
PERFORMER "Norman Connors"
INDEX 01 00:00:00
FILE "07 - Thembi.wav" WAVE
TRACK 07 AUDIO
TITLE "Thembi"
PERFORMER "Norman Connors"
INDEX 01 00:00:00
FILE "08 - Once I've Been There (7'' Version).wav" WAVE
TRACK 08 AUDIO
TITLE "Once I've Been There (7'' Version)"
PERFORMER "Norman Connors"
INDEX 01 00:00:00
TRACK 09 AUDIO
TITLE "For You Everything (7'' Version)"
PERFORMER "Norman Connors"
INDEX 00 03:33:60
FILE "09 - For You Everything (7'' Version).wav" WAVE
INDEX 01 00:00:00
 
Отчет CUETools
[CUETools log; Date: 04.12.2017 19:14:41; Version: 2.1.5]
[CTDB TOCID: 5Bd3z9w4lkMlWsiAsPbVhX7BZGU-] found.
Track | CTDB Status
1 | (5/5) Accurately ripped
2 | (5/5) Accurately ripped
3 | (5/5) Accurately ripped
4 | (5/5) Accurately ripped
5 | (5/5) Accurately ripped
6 | (5/5) Accurately ripped
7 | (5/5) Accurately ripped
8 | (5/5) Accurately ripped
9 | (5/5) Accurately ripped
[AccurateRip ID: 001262bf-0085f99a-790bf509] found.
Track [ CRC | V2 ] Status
01 [0b12b22a|538489ff] (0+4/4) Accurately ripped
02 [f32d6a33|6c09988c] (0+4/4) Accurately ripped
03 [04f8d35a|6ed51c5e] (0+4/4) Accurately ripped
04 [ced0dc1c|1b442f70] (0+4/4) Accurately ripped
05 [c808b25d|3ac87bbd] (0+4/4) Accurately ripped
06 [abdf5035|94ff637c] (0+4/4) Accurately ripped
07 [4d8d65b8|117ae980] (0+4/4) Accurately ripped
08 [be13fab2|378e753a] (0+4/4) Accurately ripped
09 [f4a7dcf0|6cb36b92] (0+4/4) Accurately ripped
Track Peak [ CRC32 ] [W/O NULL] [ LOG ]
-- 55,9 [EE236511] [2C243514]
01 55,9 [598FC57B] [E92B4400] CRC32
02 55,9 [B9551BF3] [350C0E7E] CRC32
03 55,9 [22FC268C] [D027A68C] CRC32
04 55,9 [56AFB714] [E180E53D] CRC32
05 55,9 [FE8FDCDE] [CC67E1EF] CRC32
06 55,9 [BE0C49D4] [E247993E] CRC32
07 55,9 [F208E024] [032ACB5F] CRC32
08 55,9 [4091A2A8] [E2649DF5] CRC32
09 55,9 [AF5FDCEF] [3F31806B] CRC32
 
AllMusic Review by Alex Henderson
When Norman Connors made the transition from jazz albums to commercially successful R&B-oriented dates, the drummer found himself being lambasted repeatedly in jazz press (something Roy Ayers, Patrice Rushen, George Duke and George Benson could also relate to). Myopic jazz critics trashed Romantic Journey simply because it contains so much R&B/pop, as opposed to judging its merits as an R&B/pop-oriented album. Though not as strong as its predecessor, You Are My Starship, this decent offering has its strong points, including Philip Mitchell's vocal on the haunting "Destination Moon" and Eleanore Mills' performance on a likable cover of the Stylistics' "You Are Everything." Although R&B/pop is dominant, Romantic Journey does have two noteworthy jazz instrumentals -- the Return To Forever-influenced title song and an interpretation of Pharoah Sanders' "Thembi." Connors' ultra-slick version of Gato Barbieri's "Last Tango In Paris" is a little too Muzak-like and sounds like producer Creed Taylor at his most calculated, but Journey's strengths outweigh its weaknesses.
Приватный:
Нет (DHT включён)
Размер:
339.82 Мб (356,329,587 байт) » файлов: 17
Участники:
0 раздают, 0 качают (0 участников всего)
Внешние участники:
7 раздают, 2 качают (9 участников всего) [ Обновить ]
Есть вопросы - пишите личное сообщение пользователю M0p94ok.
15:04
52
Нет комментариев. Ваш будет первым!