Поиск

(Funk, Soul) [CD] Little Anthony & The Imperials - On a New Street (1973), Hold On! (1975) (2CD) - 2013, FLAC (tracks+.cue), lossless

(Funk, Soul) [CD] Little Anthony & The Imperials - On a New Street (1973), Hold On! (1975) (2CD) - 2013, FLAC (tracks+.cue), lossless
Треклист:
Little Anthony & The Imperials - On a New Street, Hold On!
Жанр: Funk, Soul
Носитель: CD
Страна-производитель диска (релиза): Великобритания
Год издания: 2013
Издатель (лейбл): SoulMusic Records
Номер по каталогу: SMCR 5083D
Страна исполнителя (группы): США
Аудиокодек: FLAC (*.flac)
Тип рипа: tracks+.cue
Битрейт аудио: lossless
Продолжительность: 1:40:28
Источник (релизер): What.CD
Наличие сканов в содержимом раздачи: нет
 
CD1 - On a New Street (1973) {44:18}
01. I'm Falling in Love with You (3:54)
02. Lazy Susan (2:51)
03. The Loneliest House on the Block (3:57)
04. I Don't Have Time to Worry (3:23)
05. La La La at the End (4:15)
06. That's What Love Is All About (3:41)
07. What Good Am I Without You (3:17)
08. I'll Be Loving You Sooner or Later (3:06)
09. Loving You Won't Hurt as Much Tomorrow (3:19)
10. Heartaches Never Entered My Mind (3:42)
11. Easier Said Than Done (4:20)
12. La La La at the End (Alternate Mix) (4:33)
 
Лог создания рипа
Exact Audio Copy V1.0 beta 6 from 9. April 2015
EAC extraction logfile from 5. August 2016, 9:33
Little Anthony & The Imperials / On A New Street
Used drive : MATSHITADVD+-RW UJ8FB Adapter: 1 ID: 0
Read mode : Secure
Utilize accurate stream : Yes
Defeat audio cache : Yes
Make use of C2 pointers : No
Read offset correction : 6
Overread into Lead-In and Lead-Out : No
Fill up missing offset samples with silence : Yes
Delete leading and trailing silent blocks : No
Null samples used in CRC calculations : Yes
Used interface : Native Win32 interface for Win NT & 2000
Gap handling : Appended to previous track
Used output format : User Defined Encoder
Selected bitrate : 1024 kBit/s
Quality : High
Add ID3 tag : No
Command line compressor : C:\Program Files\Flac\flac.exe
Additional command line options : -8 -V -T "ARTIST=%artist%" -T "TITLE=%title%" -T "ALBUM=%albumtitle%" -T "DATE=%year%" -T "TRACKNUMBER=%tracknr%" -T "GENRE=%genre%" -T "PERFORMER=%albuminterpret%" -T "COMPOSER=%composer%" %haslyrics%--tag-from-file=LYRICS="%lyricsfile%"%haslyrics% -T "ALBUMARTIST=%albumartist%" -T "DISCNUMBER=%cdnumber%" -T "TOTALDISCS=%totalcds%" -T "TOTALTRACKS=%numtracks%" -T "COMMENT=%comment%" %source% -o %dest%
TOC of the extracted CD
Track | Start | Length | Start sector | End sector
---------------------------------------------------------
1 | 0:00.00 | 3:54.01 | 0 | 17550
2 | 3:54.01 | 2:50.66 | 17551 | 30366
3 | 6:44.67 | 3:57.27 | 30367 | 48168
4 | 10:42.19 | 3:22.41 | 48169 | 63359
5 | 14:04.60 | 4:14.61 | 63360 | 82470
6 | 18:19.46 | 3:40.58 | 82471 | 99028
7 | 22:00.29 | 3:17.33 | 99029 | 113836
8 | 25:17.62 | 3:06.26 | 113837 | 127812
9 | 28:24.13 | 3:19.01 | 127813 | 142738
10 | 31:43.14 | 3:41.51 | 142739 | 159364
11 | 35:24.65 | 4:19.57 | 159365 | 178846
12 | 39:44.47 | 4:32.66 | 178847 | 199312
Track 1
Filename C:\EAC Rips\Little Anthony & The Imperials - On A New Street+Hold On (2013)\On A New Street (1973)\01 - I'm Falling In Love With You.wav
Pre-gap length 0:00:02.00
Peak level 100.0 %
Extraction speed 2.2 X
Track quality 99.9 %
Test CRC 4B39C7C2
Copy CRC 4B39C7C2
Accurately ripped (confidence 5) [B6292A8A] (AR v2)
Copy OK
Track 2
Filename C:\EAC Rips\Little Anthony & The Imperials - On A New Street+Hold On (2013)\On A New Street (1973)\02 - Lazy Susan.wav
Pre-gap length 0:00:01.00
Peak level 99.9 %
Extraction speed 2.7 X
Track quality 100.0 %
Test CRC 2ECD1B66
Copy CRC 2ECD1B66
Accurately ripped (confidence 5) [F58278E5] (AR v2)
Copy OK
Track 3
Filename C:\EAC Rips\Little Anthony & The Imperials - On A New Street+Hold On (2013)\On A New Street (1973)\03 - The Loneliest House On The Block.wav
Pre-gap length 0:00:01.00
Peak level 99.9 %
Extraction speed 2.6 X
Track quality 99.9 %
Test CRC FEE2A911
Copy CRC FEE2A911
Accurately ripped (confidence 5) [DE51B450] (AR v2)
Copy OK
Track 4
Filename C:\EAC Rips\Little Anthony & The Imperials - On A New Street+Hold On (2013)\On A New Street (1973)\04 - I Don't Have Time To Worry.wav
Pre-gap length 0:00:01.00
Peak level 99.9 %
Extraction speed 0.0 X
Track quality 99.9 %
Test CRC 3898BD76
Copy CRC 3898BD76
Accurately ripped (confidence 5) [5DDEECB8] (AR v2)
Copy OK
Track 5
Filename C:\EAC Rips\Little Anthony & The Imperials - On A New Street+Hold On (2013)\On A New Street (1973)\05 - La La La At The End.wav
Pre-gap length 0:00:01.00
Peak level 100.0 %
Extraction speed 3.6 X
Track quality 100.0 %
Test CRC 1A14C287
Copy CRC 1A14C287
Accurately ripped (confidence 5) [9CDA7631] (AR v2)
Copy OK
Track 6
Filename C:\EAC Rips\Little Anthony & The Imperials - On A New Street+Hold On (2013)\On A New Street (1973)\06 - That's What Love Is All About.wav
Pre-gap length 0:00:01.00
Peak level 100.0 %
Extraction speed 3.1 X
Track quality 99.9 %
Test CRC 5AFB0CEA
Copy CRC 5AFB0CEA
Accurately ripped (confidence 5) [D875A5C9] (AR v2)
Copy OK
Track 7
Filename C:\EAC Rips\Little Anthony & The Imperials - On A New Street+Hold On (2013)\On A New Street (1973)\07 - What Good Am I Without You.wav
Pre-gap length 0:00:01.00
Peak level 100.0 %
Extraction speed 3.8 X
Track quality 100.0 %
Test CRC FF85475C
Copy CRC FF85475C
Accurately ripped (confidence 5) [4B444481] (AR v2)
Copy OK
Track 8
Filename C:\EAC Rips\Little Anthony & The Imperials - On A New Street+Hold On (2013)\On A New Street (1973)\08 - Sooner Or Later.wav
Pre-gap length 0:00:01.00
Peak level 100.0 %
Extraction speed 3.9 X
Track quality 100.0 %
Test CRC 29E998C4
Copy CRC 29E998C4
Accurately ripped (confidence 5) [E765D6C2] (AR v2)
Copy OK
Track 9
Filename C:\EAC Rips\Little Anthony & The Imperials - On A New Street+Hold On (2013)\On A New Street (1973)\09 - Loving You Won't Hurt As Much Tomorrow.wav
Pre-gap length 0:00:01.00
Peak level 99.9 %
Extraction speed 4.2 X
Track quality 100.0 %
Test CRC F387277B
Copy CRC F387277B
Accurately ripped (confidence 5) [E69FC170] (AR v2)
Copy OK
Track 10
Filename C:\EAC Rips\Little Anthony & The Imperials - On A New Street+Hold On (2013)\On A New Street (1973)\10 - Heartaches Never Entered My Mind.wav
Pre-gap length 0:00:01.00
Peak level 100.0 %
Extraction speed 4.3 X
Track quality 100.0 %
Test CRC 12F79A34
Copy CRC 12F79A34
Accurately ripped (confidence 5) [309C1972] (AR v2)
Copy OK
Track 11
Filename C:\EAC Rips\Little Anthony & The Imperials - On A New Street+Hold On (2013)\On A New Street (1973)\11 - Easier Said Than Done.wav
Pre-gap length 0:00:01.00
Peak level 100.0 %
Extraction speed 4.6 X
Track quality 100.0 %
Test CRC 305868AC
Copy CRC 305868AC
Accurately ripped (confidence 5) [FBD21EBE] (AR v2)
Copy OK
Track 12
Filename C:\EAC Rips\Little Anthony & The Imperials - On A New Street+Hold On (2013)\On A New Street (1973)\12 - La La La At The End (Alternate Mix).wav
Pre-gap length 0:00:01.00
Peak level 100.0 %
Extraction speed 4.1 X
Track quality 99.9 %
Test CRC 443ED71D
Copy CRC 443ED71D
Accurately ripped (confidence 5) [20E349A1] (AR v2)
Copy OK
All tracks accurately ripped
No errors occurred
End of status report
---- CUETools DB Plugin V2.1.6
[CTDB TOCID: SONJYayu3Ly2FeEysnSNTMKhDIo-] found
Submit result: SONJYayu3Ly2FeEysnSNTMKhDIo- has been confirmed
Track | CTDB Status
1 | (5/5) Accurately ripped
2 | (5/5) Accurately ripped
3 | (5/5) Accurately ripped
4 | (5/5) Accurately ripped
5 | (5/5) Accurately ripped
6 | (5/5) Accurately ripped
7 | (5/5) Accurately ripped
8 | (5/5) Accurately ripped
9 | (5/5) Accurately ripped
10 | (5/5) Accurately ripped
11 | (5/5) Accurately ripped
12 | (5/5) Accurately ripped
==== Log checksum E5D246D941BD6F86ED8755FA700B43203F110F28B0ABF4B8B0490B2E076FEE7A ====
 
Содержание индексной карты (.CUE)
REM GENRE Soul
REM DATE 1973
REM DISCID 8D0A610C
REM COMMENT "ExactAudioCopy v1.0b6"
PERFORMER "Little Anthony & The Imperials"
TITLE "On a New Street"
FILE "01 - I'm Falling in Love with You.wav" WAVE
TRACK 01 AUDIO
TITLE "I'm Falling in Love with You"
PERFORMER "Little Anthony & The Imperials"
ISRC USAR41341007
INDEX 01 00:00:00
TRACK 02 AUDIO
TITLE "Lazy Susan"
PERFORMER "Little Anthony & The Imperials"
ISRC USAR41341008
INDEX 00 03:53:01
FILE "02 - Lazy Susan.wav" WAVE
INDEX 01 00:00:00
TRACK 03 AUDIO
TITLE "The Loneliest House on the Block"
PERFORMER "Little Anthony & The Imperials"
ISRC USAR41341009
INDEX 00 02:49:66
FILE "03 - The Loneliest House on the Block.wav" WAVE
INDEX 01 00:00:00
TRACK 04 AUDIO
TITLE "I Don't Have Time to Worry"
PERFORMER "Little Anthony & The Imperials"
ISRC USAR41141001
INDEX 00 03:56:27
FILE "04 - I Don't Have Time to Worry.wav" WAVE
INDEX 01 00:00:00
TRACK 05 AUDIO
TITLE "La La La at the End"
PERFORMER "Little Anthony & The Imperials"
ISRC USAR41341010
INDEX 00 03:21:41
FILE "05 - La La La at the End.wav" WAVE
INDEX 01 00:00:00
TRACK 06 AUDIO
TITLE "That's What Love Is All About"
PERFORMER "Little Anthony & The Imperials"
ISRC USAR41341001
INDEX 00 04:13:61
FILE "06 - That's What Love Is All About.wav" WAVE
INDEX 01 00:00:00
TRACK 07 AUDIO
TITLE "What Good Am I Without You"
PERFORMER "Little Anthony & The Imperials"
ISRC USAR41341002
INDEX 00 03:39:58
FILE "07 - What Good Am I Without You.wav" WAVE
INDEX 01 00:00:00
TRACK 08 AUDIO
TITLE "I'll Be Loving You Sooner or Later"
PERFORMER "Little Anthony & The Imperials"
ISRC USAR41341003
INDEX 00 03:16:33
FILE "08 - I'll Be Loving You Sooner or Later.wav" WAVE
INDEX 01 00:00:00
TRACK 09 AUDIO
TITLE "Loving You Won't Hurt as Much Tomorrow"
PERFORMER "Little Anthony & The Imperials"
ISRC USAR41341004
INDEX 00 03:05:26
FILE "09 - Loving You Won't Hurt as Much Tomorrow.wav" WAVE
INDEX 01 00:00:00
TRACK 10 AUDIO
TITLE "Heartaches Never Entered My Mind"
PERFORMER "Little Anthony & The Imperials"
ISRC USAR41341005
INDEX 00 03:18:01
FILE "10 - Heartaches Never Entered My Mind.wav" WAVE
INDEX 01 00:00:00
TRACK 11 AUDIO
TITLE "Easier Said Than Done"
PERFORMER "Little Anthony & The Imperials"
ISRC USAR41341006
INDEX 00 03:40:51
FILE "11 - Easier Said Than Done.wav" WAVE
INDEX 01 00:00:00
TRACK 12 AUDIO
TITLE "La La La at the End (Alternate Mix)"
PERFORMER "Little Anthony & The Imperials"
ISRC USAR41341024
INDEX 00 04:18:57
FILE "12 - La La La at the End (Alternate Mix).wav" WAVE
INDEX 01 00:00:00
 
Отчет CUETools
[CUETools log; Date: 05.12.2017 16:33:12; Version: 2.1.5]
[CTDB TOCID: SONJYayu3Ly2FeEysnSNTMKhDIo-] found.
Track | CTDB Status
1 | (6/6) Accurately ripped
2 | (6/6) Accurately ripped
3 | (6/6) Accurately ripped
4 | (6/6) Accurately ripped
5 | (6/6) Accurately ripped
6 | (6/6) Accurately ripped
7 | (6/6) Accurately ripped
8 | (6/6) Accurately ripped
9 | (6/6) Accurately ripped
10 | (6/6) Accurately ripped
11 | (6/6) Accurately ripped
12 | (6/6) Accurately ripped
[AccurateRip ID: 0013450d-00b416f8-8d0a610c] found.
Track [ CRC | V2 ] Status
01 [dd7ed668|b6292a8a] (0+6/6) Accurately ripped
02 [fb4ef69d|f58278e5] (0+6/6) Accurately ripped
03 [a3c51259|de51b450] (0+6/6) Accurately ripped
04 [9fd58f5b|5ddeecb8] (0+6/6) Accurately ripped
05 [f475aff7|9cda7631] (0+6/6) Accurately ripped
06 [dc7d17fe|d875a5c9] (0+6/6) Accurately ripped
07 [db22903b|4b444481] (0+6/6) Accurately ripped
08 [da32ffc3|e765d6c2] (0+6/6) Accurately ripped
09 [410d900f|e69fc170] (0+6/6) Accurately ripped
10 [19c61fdc|309c1972] (0+6/6) Accurately ripped
11 [71938348|fbd21ebe] (0+6/6) Accurately ripped
12 [ffeff020|20e349a1] (0+6/6) Accurately ripped
Track Peak [ CRC32 ] [W/O NULL] [ LOG ]
-- 100,0 [3EFBF641] [BB137FD2]
01 100,0 [4B39C7C2] [5D103A2A] CRC32
02 99,9 [2ECD1B66] [B9D6F94F] CRC32
03 99,9 [FEE2A911] [E24CF30C] CRC32
04 99,9 [3898BD76] [36F396DC] CRC32
05 99,9 [1A14C287] [65DCBEDD] CRC32
06 100,0 [5AFB0CEA] [AA72EBCD] CRC32
07 99,9 [FF85475C] [D1C4EDF4] CRC32
08 100,0 [29E998C4] [E68A1118] CRC32
09 99,9 [F387277B] [B3034BDA] CRC32
10 99,9 [12F79A34] [A0AF2978] CRC32
11 99,9 [305868AC] [DAD03947] CRC32
12 99,9 [443ED71D] [F05069E0] CRC32
 
CD2 - Hold On! (1975) {56:11}
01. Hold On (Just a Little Bit Longer) (3:23)
02. You Are the World to Me (5:44)
03. I Can Feel the Need (3:24)
04. Young Girl (2:48)
05. My Baby's Back (4:41)
06. If You Can't Think of Anything Else (3:42)
07. Promise Me (4:26)
08. Back Where You Belong (4:17)
09. I've Got to Let You Go (6:25)
10. Hold On (Just a Little Bit Longer) (US Avco Stereo Single) (3:23)
11. I've Got to Let You Go (US Avco Stereo Single) (3:36)
12. I've Got to Let You Go (Stereo Mix) (6:25)
13. I've Got to Let You Go (Mono Short Version) (3:57)
 
Лог создания рипа
Exact Audio Copy V1.0 beta 6 from 9. April 2015
EAC extraction logfile from 5. August 2016, 10:21
Little Anthony & The Imperials / Hold On!
Used drive : MATSHITADVD+-RW UJ8FB Adapter: 1 ID: 0
Read mode : Secure
Utilize accurate stream : Yes
Defeat audio cache : Yes
Make use of C2 pointers : No
Read offset correction : 6
Overread into Lead-In and Lead-Out : No
Fill up missing offset samples with silence : Yes
Delete leading and trailing silent blocks : No
Null samples used in CRC calculations : Yes
Used interface : Native Win32 interface for Win NT & 2000
Gap handling : Appended to previous track
Used output format : User Defined Encoder
Selected bitrate : 1024 kBit/s
Quality : High
Add ID3 tag : No
Command line compressor : C:\Program Files\Flac\flac.exe
Additional command line options : -8 -V -T "ARTIST=%artist%" -T "TITLE=%title%" -T "ALBUM=%albumtitle%" -T "DATE=%year%" -T "TRACKNUMBER=%tracknr%" -T "GENRE=%genre%" -T "PERFORMER=%albuminterpret%" -T "COMPOSER=%composer%" %haslyrics%--tag-from-file=LYRICS="%lyricsfile%"%haslyrics% -T "ALBUMARTIST=%albumartist%" -T "DISCNUMBER=%cdnumber%" -T "TOTALDISCS=%totalcds%" -T "TOTALTRACKS=%numtracks%" -T "COMMENT=%comment%" %source% -o %dest%
TOC of the extracted CD
Track | Start | Length | Start sector | End sector
---------------------------------------------------------
1 | 0:00.00 | 3:23.09 | 0 | 15233
2 | 3:23.09 | 5:43.68 | 15234 | 41026
3 | 9:07.02 | 3:24.12 | 41027 | 56338
4 | 12:31.14 | 2:47.38 | 56339 | 68901
5 | 15:18.52 | 4:41.04 | 68902 | 89980
6 | 19:59.56 | 3:41.50 | 89981 | 106605
7 | 23:41.31 | 4:25.61 | 106606 | 126541
8 | 28:07.17 | 4:16.53 | 126542 | 145794
9 | 32:23.70 | 6:24.53 | 145795 | 174647
10 | 38:48.48 | 3:23.37 | 174648 | 189909
11 | 42:12.10 | 3:35.67 | 189910 | 206101
12 | 45:48.02 | 6:25.33 | 206102 | 235009
13 | 52:13.35 | 3:57.10 | 235010 | 252794
Track 1
Filename C:\EAC Rips\Little Anthony & The Imperials - On A New Street+Hold On (2013)\Hold On (1975)\01 - Hold On (Just A Little Bit longer).wav
Pre-gap length 0:00:02.00
Peak level 99.9 %
Extraction speed 2.5 X
Track quality 100.0 %
Test CRC F12BD160
Copy CRC F12BD160
Accurately ripped (confidence 4) [341EA167] (AR v2)
Copy OK
Track 2
Filename C:\EAC Rips\Little Anthony & The Imperials - On A New Street+Hold On (2013)\Hold On (1975)\02 - You Are The World To Me.wav
Peak level 99.9 %
Extraction speed 3.0 X
Track quality 100.0 %
Test CRC 0AFCFD3B
Copy CRC 0AFCFD3B
Accurately ripped (confidence 4) [468404B7] (AR v2)
Copy OK
Track 3
Filename C:\EAC Rips\Little Anthony & The Imperials - On A New Street+Hold On (2013)\Hold On (1975)\03 - I Can Feel The Need.wav
Peak level 99.9 %
Extraction speed 2.6 X
Track quality 99.9 %
Test CRC EE57182F
Copy CRC EE57182F
Accurately ripped (confidence 4) [970E51CA] (AR v2)
Copy OK
Track 4
Filename C:\EAC Rips\Little Anthony & The Imperials - On A New Street+Hold On (2013)\Hold On (1975)\04 - Young Girl.wav
Peak level 100.0 %
Extraction speed 3.2 X
Track quality 100.0 %
Test CRC 6E158565
Copy CRC 6E158565
Accurately ripped (confidence 4) [502AA629] (AR v2)
Copy OK
Track 5
Filename C:\EAC Rips\Little Anthony & The Imperials - On A New Street+Hold On (2013)\Hold On (1975)\05 - My Baby's Back.wav
Peak level 100.0 %
Extraction speed 3.7 X
Track quality 100.0 %
Test CRC DE9C7900
Copy CRC DE9C7900
Accurately ripped (confidence 4) [66793609] (AR v2)
Copy OK
Track 6
Filename C:\EAC Rips\Little Anthony & The Imperials - On A New Street+Hold On (2013)\Hold On (1975)\06 - If You Can't Think Of Anything Else.wav
Peak level 100.0 %
Extraction speed 3.8 X
Track quality 100.0 %
Test CRC BB335E91
Copy CRC BB335E91
Accurately ripped (confidence 4) [09526BE3] (AR v2)
Copy OK
Track 7
Filename C:\EAC Rips\Little Anthony & The Imperials - On A New Street+Hold On (2013)\Hold On (1975)\07 - Promise Me.wav
Peak level 100.0 %
Extraction speed 4.1 X
Track quality 100.0 %
Test CRC 8F5286FA
Copy CRC 8F5286FA
Accurately ripped (confidence 4) [FE4BA671] (AR v2)
Copy OK
Track 8
Filename C:\EAC Rips\Little Anthony & The Imperials - On A New Street+Hold On (2013)\Hold On (1975)\08 - Back Where You Belong.wav
Peak level 99.9 %
Extraction speed 4.3 X
Track quality 100.0 %
Test CRC 42C4F8DF
Copy CRC 42C4F8DF
Accurately ripped (confidence 4) [CA9A1645] (AR v2)
Copy OK
Track 9
Filename C:\EAC Rips\Little Anthony & The Imperials - On A New Street+Hold On (2013)\Hold On (1975)\09 - I've Got To Let You Go.wav
Peak level 99.9 %
Extraction speed 4.6 X
Track quality 100.0 %
Test CRC 213CAF2D
Copy CRC 213CAF2D
Accurately ripped (confidence 4) [72507D35] (AR v2)
Copy OK
Track 10
Filename C:\EAC Rips\Little Anthony & The Imperials - On A New Street+Hold On (2013)\Hold On (1975)\10 - Hold On (Just A Little Bit Longer) (US Avco Stereo Single).wav
Peak level 100.0 %
Extraction speed 3.7 X
Track quality 99.9 %
Test CRC 96C5F577
Copy CRC 96C5F577
Accurately ripped (confidence 4) [CA0B322A] (AR v2)
Copy OK
Track 11
Filename C:\EAC Rips\Little Anthony & The Imperials - On A New Street+Hold On (2013)\Hold On (1975)\11 - I've Got To Let You Go (US Avco Stereo Single).wav
Peak level 100.0 %
Extraction speed 4.7 X
Track quality 100.0 %
Test CRC A8D26B5B
Copy CRC A8D26B5B
Accurately ripped (confidence 4) [353A0DFE] (AR v2)
Copy OK
Track 12
Filename C:\EAC Rips\Little Anthony & The Imperials - On A New Street+Hold On (2013)\Hold On (1975)\12 - I've Got To Let You Go (Stereo Mix).wav
Peak level 99.9 %
Extraction speed 4.6 X
Track quality 99.9 %
Test CRC 94731172
Copy CRC 94731172
Accurately ripped (confidence 4) [3563B46D] (AR v2)
Copy OK
Track 13
Filename C:\EAC Rips\Little Anthony & The Imperials - On A New Street+Hold On (2013)\Hold On (1975)\13 - I've Got To Let You Go (Mono Short Version).wav
Peak level 99.9 %
Extraction speed 5.0 X
Track quality 100.0 %
Test CRC A83F8424
Copy CRC A83F8424
Accurately ripped (confidence 4) [C935A8EF] (AR v2)
Copy OK
All tracks accurately ripped
No errors occurred
End of status report
---- CUETools DB Plugin V2.1.6
[CTDB TOCID: CG.Frsbumt9k4WHwoeA_rLbeXII-] found
Submit result: CG.Frsbumt9k4WHwoeA_rLbeXII- has been confirmed
Track | CTDB Status
1 | (4/4) Accurately ripped
2 | (4/4) Accurately ripped
3 | (4/4) Accurately ripped
4 | (4/4) Accurately ripped
5 | (4/4) Accurately ripped
6 | (4/4) Accurately ripped
7 | (4/4) Accurately ripped
8 | (4/4) Accurately ripped
9 | (4/4) Accurately ripped
10 | (4/4) Accurately ripped
11 | (4/4) Accurately ripped
12 | (4/4) Accurately ripped
13 | (4/4) Accurately ripped
==== Log checksum ECA7055EB2DFF158417CCBFFEA6D6FC9D5AD67C11949347C11697B9598D3AA08 ====
 
Содержание индексной карты (.CUE)
REM GENRE Soul
REM DATE 1975
REM DISCID 9E0D2A0D
REM COMMENT "ExactAudioCopy v1.0b6"
PERFORMER "Little Anthony & The Imperials"
TITLE "Hold On!"
FILE "01 - Hold On (Just a Little Bit Longer).wav" WAVE
TRACK 01 AUDIO
TITLE "Hold On (Just a Little Bit Longer)"
PERFORMER "Little Anthony & The Imperials"
ISRC USAR41341016
INDEX 01 00:00:00
FILE "02 - You Are the World to Me.wav" WAVE
TRACK 02 AUDIO
TITLE "You Are the World to Me"
PERFORMER "Little Anthony & The Imperials"
ISRC USAR41341012
INDEX 01 00:00:00
FILE "03 - I Can Feel the Need.wav" WAVE
TRACK 03 AUDIO
TITLE "I Can Feel the Need"
PERFORMER "Little Anthony & The Imperials"
ISRC USAR41341019
INDEX 01 00:00:00
FILE "04 - Young Girl.wav" WAVE
TRACK 04 AUDIO
TITLE "Young Girl"
PERFORMER "Little Anthony & The Imperials"
ISRC USAR41341014
INDEX 01 00:00:00
FILE "05 - My Baby's Back.wav" WAVE
TRACK 05 AUDIO
TITLE "My Baby's Back"
PERFORMER "Little Anthony & The Imperials"
ISRC USAR41341015
INDEX 01 00:00:00
FILE "06 - If You Can't Think of Anything Else.wav" WAVE
TRACK 06 AUDIO
TITLE "If You Can't Think of Anything Else"
PERFORMER "Little Anthony & The Imperials"
ISRC USAR41341017
INDEX 01 00:00:00
FILE "07 - Promise Me.wav" WAVE
TRACK 07 AUDIO
TITLE "Promise Me"
PERFORMER "Little Anthony & The Imperials"
ISRC USAR41341013
INDEX 01 00:00:00
FILE "08 - Back Where You Belong.wav" WAVE
TRACK 08 AUDIO
TITLE "Back Where You Belong"
PERFORMER "Little Anthony & The Imperials"
ISRC USAR41341018
INDEX 01 00:00:00
FILE "09 - I've Got to Let You Go.wav" WAVE
TRACK 09 AUDIO
TITLE "I've Got to Let You Go"
PERFORMER "Little Anthony & The Imperials"
ISRC USAR41341011
INDEX 01 00:00:00
FILE "10 - Hold On (Just a Little Bit Longer) (US Avco Stereo Single).wav" WAVE
TRACK 10 AUDIO
TITLE "Hold On (Just a Little Bit Longer) (US Avco Stereo Single)"
PERFORMER "Little Anthony & The Imperials"
ISRC USAR41341020
INDEX 01 00:00:00
FILE "11 - I've Got to Let You Go (US Avco Stereo Single).wav" WAVE
TRACK 11 AUDIO
TITLE "I've Got to Let You Go (US Avco Stereo Single)"
PERFORMER "Little Anthony & The Imperials"
ISRC USAR41341021
INDEX 01 00:00:00
FILE "12 - I've Got to Let You Go (Stereo Mix).wav" WAVE
TRACK 12 AUDIO
TITLE "I've Got to Let You Go (Stereo Mix)"
PERFORMER "Little Anthony & The Imperials"
ISRC USAR41341022
INDEX 01 00:00:00
FILE "13 - I've Got to Let You Go (Mono Short Version).wav" WAVE
TRACK 13 AUDIO
TITLE "I've Got to Let You Go (Mono Short Version)"
PERFORMER "Little Anthony & The Imperials"
ISRC USAR41341023
INDEX 01 00:00:00
 
Отчет CUETools
[CUETools log; Date: 05.12.2017 16:33:33; Version: 2.1.5]
[CTDB TOCID: CG.Frsbumt9k4WHwoeA_rLbeXII-] found.
Track | CTDB Status
1 | (5/5) Accurately ripped
2 | (5/5) Accurately ripped
3 | (5/5) Accurately ripped
4 | (5/5) Accurately ripped
5 | (5/5) Accurately ripped
6 | (5/5) Accurately ripped
7 | (5/5) Accurately ripped
8 | (5/5) Accurately ripped
9 | (5/5) Accurately ripped
10 | (5/5) Accurately ripped
11 | (5/5) Accurately ripped
12 | (5/5) Accurately ripped
13 | (5/5) Accurately ripped
[AccurateRip ID: 001a135b-01070411-9e0d2a0d] found.
Track [ CRC | V2 ] Status
01 [69763745|341ea167] (0+5/5) Accurately ripped
02 [dbd99a62|468404b7] (0+5/5) Accurately ripped
03 [823274e0|970e51ca] (0+5/5) Accurately ripped
04 [d9137368|502aa629] (0+5/5) Accurately ripped
05 [7aaf6ad5|66793609] (0+5/5) Accurately ripped
06 [49433d12|09526be3] (0+5/5) Accurately ripped
07 [01f92dc8|fe4ba671] (0+5/5) Accurately ripped
08 [e81b2f46|ca9a1645] (0+5/5) Accurately ripped
09 [a8013d66|72507d35] (0+5/5) Accurately ripped
10 [c9a35074|ca0b322a] (0+5/5) Accurately ripped
11 [20e78f03|353a0dfe] (0+5/5) Accurately ripped
12 [d7c58813|3563b46d] (0+5/5) Accurately ripped
13 [6906b1be|c935a8ef] (0+5/5) Accurately ripped
Track Peak [ CRC32 ] [W/O NULL] [ LOG ]
-- 100,0 [0CD7B847] [0E526FE6]
01 99,9 [F12BD160] [1DC03BB4] CRC32
02 99,9 [0AFCFD3B] [93B55696] CRC32
03 99,9 [EE57182F] [4B1F1CAB] CRC32
04 100,0 [6E158565] [F592CC35] CRC32
05 100,0 [DE9C7900] [65CE71EB] CRC32
06 100,0 [BB335E91] [5D700B62] CRC32
07 100,0 [8F5286FA] [44C3C19D] CRC32
08 99,9 [42C4F8DF] [7164853C] CRC32
09 99,9 [213CAF2D] [7ACE027D] CRC32
10 99,9 [96C5F577] [9DB92710] CRC32
11 100,0 [A8D26B5B] [F3EB8175] CRC32
12 99,9 [94731172] [E7FF9235] CRC32
13 99,9 [A83F8424] [0639EEBC] CRC32
 
AllMusic Review by Andy Kellman
David Nathan's Soul Music label continues to provide a major service for R&B fanatics by reissuing Little Anthony & the Imperials' two albums for Avco: On a New Street (1973) and Hold On! (1975). Both sets had been out of print for ages, but the latter was particularly scarce since the label withdrew it shortly after release. The Top 30 R&B single "I'm Falling in Love with You," written by Jeanne Davis and produced by Thom Bell, leads the first album (some of which was produced by Tony Randazzo). Hold On!, a collaboration with Thom's brother Tony Bell and Phil Hurtt, had a couple fine contemporary A-sides with "Hold On (Just a Little Bit Longer)" (number 79 R&B) and "I've Got to Let You Go."
Приватный:
Нет (DHT включён)
Размер:
568.00 Мб (595,591,992 байт) » файлов: 38
Участники:
0 раздают, 0 качают (0 участников всего)
Внешние участники:
3 раздают, 1 качают (4 участников всего) [ Обновить ]
Есть вопросы - пишите личное сообщение пользователю M0p94ok.
15:05
58
Нет комментариев. Ваш будет первым!