Поиск

(Soul, R&B) Wilson Pickett - The Very Best - 1993, FLAC (image+.cue), lossless

Треклист:
Wilson Pickett - The Very Best
Жанр: Soul, R&B
Год выпуска диска: 1993
Производитель диска: RHINO (Germany)
Аудио кодек: FLAC
Тип рипа: image+.cue
Битрейт аудио: lossless
Продолжительность: 49:03
Трэклист:
1. In The Midnight Hour
2. 634-5789 (Soulsville, U.S.A.)
3. Land Of 1000 Dances
4. Mustang Sally
5. Funky Broadway
6. I'm In Love
7. She's Lookin' Good
8. Hey Jude
9. Sugar Sugar
10. Engine Number 9
11. Don't Let The Green Grass Fool You
12. Don't Knock My Love - Part 1
13. Fire And Water
14. I'm A Midnight Mover
15. I Found Love - Part 1
16. Everybody Needs Somebody To Love
 
Log EAC
Exact Audio Copy V0.99 prebeta 5 from 4. May 2009
Отчёт EAC об извлечении, выполненном 13. апреля 2010, 23:44
Wilson Pickett / The Very Best Of Wilson Pickett [CD]
Дисковод: MATSHITAUJDA755 DVD/CDRW Adapter: 1 ID: 0
Режим чтения : Достоверность
Использование точного потока : Да
Отключение кэша аудио : Да
Использование указателей C2 : Нет
Коррекция смещения при чтении : 102
Способность читать области Lead-in и Lead-out : Нет
Заполнение пропущенных сэмплов тишиной : Да
Удаление блоков с тишиной в начале и конце : Нет
При вычислениях CRC использовались нулевые сэмплы : Да
Интерфейс : Встроенный Win32-интерфейс для Win NT/2000
Выходной формат : Пользовательский кодировщик
Выбранный битрейт : 768 kBit/s
Качество : Высокий
Добавление ID3-тэга : Нет
Утилита сжатия : C:\Program Files\Exact Audio Copy\FLAC\FLAC.EXE
Дополнительные параметры : -8 -V %s
TOC извлечённого CD
Трек | Старт | Длительность | Начальный сектор | Конечный сектор
---------------------------------------------------------------------
1 | 0:00.00 | 2:36.13 | 0 | 11712
2 | 2:36.13 | 3:00.20 | 11713 | 25232
3 | 5:36.33 | 2:28.02 | 25233 | 36334
4 | 8:04.35 | 3:08.48 | 36335 | 50482
5 | 11:13.08 | 2:39.37 | 50483 | 62444
6 | 13:52.45 | 2:33.73 | 62445 | 73992
7 | 16:26.43 | 2:29.40 | 73993 | 85207
8 | 18:56.08 | 4:08.70 | 85208 | 103877
9 | 23:05.03 | 2:59.30 | 103878 | 117332
10 | 26:04.33 | 6:28.07 | 117333 | 146439
11 | 32:32.40 | 3:06.68 | 146440 | 160457
12 | 35:39.33 | 2:19.50 | 160458 | 170932
13 | 37:59.08 | 3:19.17 | 170933 | 185874
14 | 41:18.25 | 2:27.38 | 185875 | 196937
15 | 43:45.63 | 2:59.20 | 196938 | 210382
16 | 46:45.08 | 2:18.37 | 210383 | 220769
Характеристики диапазона извлечения и сообщения об ошибках
Выбранный диапазон
Имя файла G:\FLACи\Wilson Pickett - The Very Best\Wilson Pickett - The Very Best Of Wilson Pickett [CD].wav
Пиковый уровень 100.0 %
Качество диапазона 100.0 %
CRC теста F9683E57
CRC копии F9683E57
Копирование... OK
Ошибок не произошло
AccurateRip: сводка
Трек 1 точное извлечение (доверие 19) [E889E608]
Трек 2 точное извлечение (доверие 19) [24CBE464]
Трек 3 точное извлечение (доверие 19) [125A460A]
Трек 4 точное извлечение (доверие 21) [57BF05BF]
Трек 5 точное извлечение (доверие 19) [F36E0D7B]
Трек 6 точное извлечение (доверие 19) [D41EA3B2]
Трек 7 точное извлечение (доверие 20) [E3D76597]
Трек 8 точное извлечение (доверие 20) [1FF1D1FB]
Трек 9 точное извлечение (доверие 19) [0757AEEC]
Трек 10 точное извлечение (доверие 20) [21614873]
Трек 11 точное извлечение (доверие 19) [8D27DE4D]
Трек 12 точное извлечение (доверие 19) [D958557B]
Трек 13 точное извлечение (доверие 20) [21149D46]
Трек 14 точное извлечение (доверие 19) [9BAF7C00]
Трек 15 точное извлечение (доверие 19) [08D2C531]
Трек 16 точное извлечение (доверие 20) [C19E29AF]
Все треки извлечены точно
Конец отчёта
Рип с диска из моей коллекции. Сканы 600dpi.
Приватный:
Нет (DHT включён)
Размер:
243.98 Мб (255,835,728 байт) » файлов: 9
Участники:
0 раздают, 0 качают (0 участников всего)
Внешние участники:
5 раздают, 1 качают (6 участников всего) [ Обновить ]
Никого нет на раздаче - пишите личное сообщение M0p94ok
No seeders - write personal message to M0p94ok
04:15
23
Нет комментариев. Ваш будет первым!