Вы используете незарегистрированную версию компонента "Вкладки"!

Поиск

2004 VA - Blue Note Trip Maestro - Goin' Down Gettin' Up {Blue Note} [CD2]

2004 VA - Blue Note Trip Maestro - Goin' Down Gettin' Up {Blue Note} [CD2]
Издатель (лейбл):
Лог создания рипа
Exact Audio Copy V0.99 prebeta 4 from 23. January 2008
Отчёт EAC об извлечении, выполненном 14. апреля 2010, 15:31
Various / Blue Note Trip - Gettin' Up
Дисковод: PLEXTOR DVDR   PX-810SA   Adapter: 0  ID: 0
Режим чтения                 : Достоверность
Использование точного потока : Да
Отключение кэша аудио        : Да
Использование указателей C2  : Нет
Коррекция смещения при чтении                     : 48
Способность читать области Lead-in и Lead-out     : Нет
Заполнение пропущенных сэмплов тишиной            : Да
Удаление блоков с тишиной в начале и конце        : Нет
При вычислениях CRC использовались нулевые сэмплы : Да
Интерфейс                                         : Встроенный Win32-интерфейс для Win NT/2000
Выходной формат : Внутренние WAV-операции
Формат сэмплов  : 44.100 Гц; 16 бит; стерео
TOC извлечённого CD
     Трек |   Старт  | Длительность | Начальный сектор | Конечный сектор
    ---------------------------------------------------------------------
       1  |  0:00.00 |    5:12.12   |           0      |      23411
       2  |  5:12.12 |    3:16.10   |       23412      |      38121
       3  |  8:28.22 |    4:33.41   |       38122      |      58637
       4  | 13:01.63 |    4:02.27   |       58638      |      76814
       5  | 17:04.15 |    5:40.04   |       76815      |     102318
       6  | 22:44.19 |    2:55.53   |      102319      |     115496
       7  | 25:39.72 |    2:27.52   |      115497      |     126573
       8  | 28:07.49 |    5:39.29   |      126574      |     152027
       9  | 33:47.03 |    2:07.22   |      152028      |     161574
      10  | 35:54.25 |    4:14.71   |      161575      |     180695
      11  | 40:09.21 |    5:04.11   |      180696      |     203506
      12  | 45:13.32 |    2:51.22   |      203507      |     216353
      13  | 48:04.54 |    3:56.55   |      216354      |     234108
      14  | 52:01.34 |    3:40.45   |      234109      |     250653
      15  | 55:42.04 |    4:42.26   |      250654      |     271829
      16  | 60:24.30 |    6:08.63   |      271830      |     299492
      17  | 69:05.18 |    7:24.45   |      310893      |     344237
Характеристики диапазона извлечения и сообщения об ошибках
Выбранный диапазон
     Имя файла E:\Загрузка\Blue Note Trip - Gettin' Up (2004)\Various - Blue Note Trip - Gettin' Up.wav
     Пиковый уровень 97.7 %
     Качество диапазона 100.0 %
     CRC копии B165E97D
     Копирование... OK
Ошибок не произошло
AccurateRip: сводка
Трек  1  точное извлечение (доверие 4)  [AD527013]
Трек  2  точное извлечение (доверие 8)  [266F4A3E]
Трек  3  точное извлечение (доверие 6)  [81508F6D]
Трек  4  точное извлечение (доверие 8)  [DB592D0B]
Трек  5  точное извлечение (доверие 9)  [AE4AF689]
Трек  6  точное извлечение (доверие 9)  [B6FFC43A]
Трек  7  точное извлечение (доверие 10)  [AC8B24F8]
Трек  8  точное извлечение (доверие 8)  [B7460F7B]
Трек  9  точное извлечение (доверие 9)  [B7D070E2]
Трек 10  точное извлечение (доверие 8)  [9A527360]
Трек 11  точное извлечение (доверие 9)  [7545F07F]
Трек 12  точное извлечение (доверие 10)  [20695590]
Трек 13  точное извлечение (доверие 8)  [C6300F65]
Трек 14  точное извлечение (доверие 9)  [D1B3B3C0]
Трек 15  точное извлечение (доверие 9)  [EBECF1E4]
Трек 16  точное извлечение (доверие 9)  [482D29DB]
Все треки извлечены точно
Конец отчёта
Any questions - support@pro-jazz.com. Есть вопросы - support@pro-jazz.com
04:15
200
Нет комментариев. Ваш будет первым!