Поиск

(Soul, Funk, Early R&B) Billy Preston - "Billy's Bag (His Most Hammond Groovin 'Soul Movin' Sides 1963-66)" - 2001, FLAC (tracks+.cue), lossless

(Soul, Funk, Early R&B) Billy Preston - "Billy's Bag (His Most Hammond Groovin 'Soul Movin' Sides 1963-66)" - 2001, FLAC (tracks+.cue), lossless
Треклист:
Billy Preston - "Billy's Bag (His Most Hammond Groovin 'Soul Movin' Sides 1963-66)"
Жанр: Soul, Funk, Early R&B
Год выпуска диска: 2001
Производитель диска: EEC (RPM Records Uk)
Аудио кодек: FLAC
Тип рипа: tracks+.cue
Битрейт аудио: lossless
Продолжительность: 00:46:29
Трэклист:
intro
1. Soul Derby (B. Preston)
2. Don't Let the Sun Catch You Crying (J. Greene)
3. Steady Getting It (B. Preston)
4. The Octopus (B. Preston)
5. I Am Coming Through (B. Preston)
6. Billy's Bag (B. Preston)
7. Low Down (B. Preston)
8. Let Me Know (B. Preston)
9. Slippin' and Slidin' (Penniman, Bocage, Smith)
10. Can't You Hear My Heartbeat (Carter, Lewis)
11. Shotgun (A. de Walt)
12. Soul Meeting (B. Preston)
13. How Great Thou Art (public domain)
outro
Доп. информация: Tracks 2-13 (p) 1964-66. All original Vee Jay recordings, licensed from Charly Licensing aps. Album compilation produced by Lee Connolly. This compilation (p)&(c) 2001 RPM, a division of Cherry Red Records Ltd.
 
Tau Analyzer
 
Отчёт EAC
Exact Audio Copy V0.99 prebeta 4 from 23. January 2008
Отчёт EAC об извлечении, выполненном 14. апреля 2010, 12:22
Billy Preston / Billys Bag
Дисковод: HL-DT-STDVD-RAM GSA-H55N Adapter: 0 ID: 1
Режим чтения : Достоверность
Использование точного потока : Да
Отключение кэша аудио : Да
Использование указателей C2 : Нет
Коррекция смещения при чтении : 102
Способность читать области Lead-in и Lead-out : Нет
Заполнение пропущенных сэмплов тишиной : Да
Удаление блоков с тишиной в начале и конце : Нет
При вычислениях CRC использовались нулевые сэмплы : Да
Интерфейс : Встроенный Win32-интерфейс для Win NT/2000
Обработка зазоров : Добавлено к предыдущему треку
Выходной формат : Пользовательский кодировщик
Выбранный битрейт : 128 kBit/s
Качество : Высокий
Добавление ID3-тэга : Нет
Утилита сжатия : C:\Program Files\Exact Audio Copy\Flac\flac.exe
Дополнительные параметры : -8 -V -T "ARTIST=%a" -T "TITLE=%t" -T "ALBUM=%g" -T "DATE=%y" -T "TRACKNUMBER=%n" -T "GENRE=%m" -T "COMMENT=EAC FLAC -8" %s
TOC извлечённого CD
Трек | Старт | Длительность | Начальный сектор | Конечный сектор
---------------------------------------------------------------------
1 | 0:00.00 | 9:16.13 | 0 | 41712
2 | 9:16.13 | 2:54.63 | 41713 | 54825
3 | 12:11.01 | 2:48.22 | 54826 | 67447
4 | 14:59.23 | 2:12.08 | 67448 | 77355
5 | 17:11.31 | 2:04.13 | 77356 | 86668
6 | 19:15.44 | 3:47.16 | 86669 | 103709
7 | 23:02.60 | 2:13.47 | 103710 | 113731
8 | 25:16.32 | 2:04.69 | 113732 | 123100
9 | 27:21.26 | 3:05.55 | 123101 | 137030
10 | 30:27.06 | 2:01.21 | 137031 | 146126
11 | 32:28.27 | 2:24.58 | 146127 | 156984
12 | 34:53.10 | 2:43.12 | 156985 | 169221
13 | 37:36.22 | 8:53.29 | 169222 | 209225
Трек 1
Имя файла F:\TORRENT\Music\ТОРРЕНТ\Billy_Preston\01. Billy Preston – Soul Derby.wav
Длина предзазора 0:00:02.00
Пиковый уровень 95.3 %
Качество трека 100.0 %
CRC теста 3A0935EC
CRC копии 3A0935EC
Точное извлечение (достоверность 1) [6F07E1A3]
Копирование... OK
Трек 2
Имя файла F:\TORRENT\Music\ТОРРЕНТ\Billy_Preston\02. Billy Preston – Don't Let The Sun Catch You Crying.wav
Пиковый уровень 93.9 %
Качество трека 100.0 %
CRC теста 7152F715
CRC копии 7152F715
Точное извлечение (достоверность 1) [459CCBED]
Копирование... OK
Трек 3
Имя файла F:\TORRENT\Music\ТОРРЕНТ\Billy_Preston\03. Billy Preston – Steady Getting It.wav
Пиковый уровень 100.0 %
Качество трека 100.0 %
CRC теста 840F4075
CRC копии 840F4075
Точное извлечение (достоверность 1) [8EEF1C9E]
Копирование... OK
Трек 4
Имя файла F:\TORRENT\Music\ТОРРЕНТ\Billy_Preston\04. Billy Preston – The Octopus.wav
Пиковый уровень 96.6 %
Качество трека 100.0 %
CRC теста 2807387B
CRC копии 2807387B
Точное извлечение (достоверность 1) [E8CDC879]
Копирование... OK
Трек 5
Имя файла F:\TORRENT\Music\ТОРРЕНТ\Billy_Preston\05. Billy Preston – I Am Coming Through.wav
Пиковый уровень 97.0 %
Качество трека 99.9 %
CRC теста F47A923F
CRC копии F47A923F
Точное извлечение (достоверность 1) [B5901298]
Копирование... OK
Трек 6
Имя файла F:\TORRENT\Music\ТОРРЕНТ\Billy_Preston\06. Billy Preston – Billys Bag.wav
Пиковый уровень 100.0 %
Качество трека 100.0 %
CRC теста 40CC85B3
CRC копии 40CC85B3
Точное извлечение (достоверность 1) [98D49246]
Копирование... OK
Трек 7
Имя файла F:\TORRENT\Music\ТОРРЕНТ\Billy_Preston\07. Billy Preston – Low Down.wav
Пиковый уровень 90.8 %
Качество трека 100.0 %
CRC теста ADBA65AB
CRC копии ADBA65AB
Точное извлечение (достоверность 1) [D0BC84B1]
Копирование... OK
Трек 8
Имя файла F:\TORRENT\Music\ТОРРЕНТ\Billy_Preston\08. Billy Preston – Let Me Know.wav
Пиковый уровень 99.7 %
Качество трека 100.0 %
CRC теста FA7AC941
CRC копии FA7AC941
Точное извлечение (достоверность 1) [3BCF414B]
Копирование... OK
Трек 9
Имя файла F:\TORRENT\Music\ТОРРЕНТ\Billy_Preston\09. Billy Preston – Slippin' And Slidin'.wav
Пиковый уровень 98.9 %
Качество трека 100.0 %
CRC теста 2D0C7199
CRC копии 2D0C7199
Точное извлечение (достоверность 1) [29CB2156]
Копирование... OK
Трек 10
Имя файла F:\TORRENT\Music\ТОРРЕНТ\Billy_Preston\10. Billy Preston – Can't You Hear My Heartbeat.wav
Пиковый уровень 95.6 %
Качество трека 100.0 %
CRC теста 791F546B
CRC копии 791F546B
Точное извлечение (достоверность 1) [048591EA]
Копирование... OK
Трек 11
Имя файла F:\TORRENT\Music\ТОРРЕНТ\Billy_Preston\11. Billy Preston – Shotgun.wav
Пиковый уровень 94.1 %
Качество трека 99.9 %
CRC теста 599C05E9
CRC копии 599C05E9
Точное извлечение (достоверность 1) [672B7627]
Копирование... OK
Трек 12
Имя файла F:\TORRENT\Music\ТОРРЕНТ\Billy_Preston\12. Billy Preston – Soul Meeting.wav
Пиковый уровень 99.8 %
Качество трека 100.0 %
CRC теста CA376DB7
CRC копии CA376DB7
Точное извлечение (достоверность 1) [7A866853]
Копирование... OK
Трек 13
Имя файла F:\TORRENT\Music\ТОРРЕНТ\Billy_Preston\13. Billy Preston – How Great Thou Art.wav
Пиковый уровень 99.5 %
Качество трека 100.0 %
CRC теста FCDD6010
CRC копии FCDD6010
Точное извлечение (достоверность 1) [7DBDCF92]
Копирование... OK
Все треки извлечены точно
Ошибок не произошло
Конец отчёта
 
CUE Sheet
REM GENRE misc
REM DISCID B10AE50D
REM COMMENT "ExactAudioCopy v0.99pb4"
PERFORMER "Billy Preston"
TITLE "Billys Bag"
FILE "01. Billy Preston – Soul Derby.wav" WAVE
TRACK 01 AUDIO
TITLE "Soul Derby"
PERFORMER "Billy Preston"
INDEX 01 00:00:00
FILE "02. Billy Preston – Don't Let The Sun Catch You Crying.wav" WAVE
TRACK 02 AUDIO
TITLE "Don't Let The Sun Catch You Crying"
PERFORMER "Billy Preston"
INDEX 01 00:00:00
FILE "03. Billy Preston – Steady Getting It.wav" WAVE
TRACK 03 AUDIO
TITLE "Steady Getting It"
PERFORMER "Billy Preston"
INDEX 01 00:00:00
FILE "04. Billy Preston – The Octopus.wav" WAVE
TRACK 04 AUDIO
TITLE "The Octopus"
PERFORMER "Billy Preston"
INDEX 01 00:00:00
FILE "05. Billy Preston – I Am Coming Through.wav" WAVE
TRACK 05 AUDIO
TITLE "I Am Coming Through"
PERFORMER "Billy Preston"
INDEX 01 00:00:00
FILE "06. Billy Preston – Billys Bag.wav" WAVE
TRACK 06 AUDIO
TITLE "Billys Bag"
PERFORMER "Billy Preston"
INDEX 01 00:00:00
FILE "07. Billy Preston – Low Down.wav" WAVE
TRACK 07 AUDIO
TITLE "Low Down"
PERFORMER "Billy Preston"
INDEX 01 00:00:00
FILE "08. Billy Preston – Let Me Know.wav" WAVE
TRACK 08 AUDIO
TITLE "Let Me Know"
PERFORMER "Billy Preston"
INDEX 01 00:00:00
FILE "09. Billy Preston – Slippin' And Slidin'.wav" WAVE
TRACK 09 AUDIO
TITLE "Slippin' And Slidin'"
PERFORMER "Billy Preston"
INDEX 01 00:00:00
FILE "10. Billy Preston – Can't You Hear My Heartbeat.wav" WAVE
TRACK 10 AUDIO
TITLE "Can't You Hear My Heartbeat"
PERFORMER "Billy Preston"
INDEX 01 00:00:00
FILE "11. Billy Preston – Shotgun.wav" WAVE
TRACK 11 AUDIO
TITLE "Shotgun"
PERFORMER "Billy Preston"
INDEX 01 00:00:00
FILE "12. Billy Preston – Soul Meeting.wav" WAVE
TRACK 12 AUDIO
TITLE "Soul Meeting"
PERFORMER "Billy Preston"
INDEX 01 00:00:00
FILE "13. Billy Preston – How Great Thou Art.wav" WAVE
TRACK 13 AUDIO
TITLE "How Great Thou Art"
PERFORMER "Billy Preston"
INDEX 01 00:00:00
Приватный:
Нет (DHT включён)
Размер:
252.34 Мб (264,602,412 байт) » файлов: 16
Участники:
0 раздают, 0 качают (0 участников всего)
Внешние участники:
5 раздают, 1 качают (6 участников всего) [ Обновить ]
Никого нет на раздаче - пишите личное сообщение M0p94ok
No seeders - write personal message to M0p94ok
04:14
28
Нет комментариев. Ваш будет первым!