Поиск

(R&B/Soul) Stevie Wonder - Innervisions (Japan SHM-CD) - 2009, FLAC (tracks+.cue), lossless

(R&B/Soul) Stevie Wonder - Innervisions (Japan SHM-CD) - 2009, FLAC (tracks+.cue), lossless
Треклист:
Stevie Wonder - Innervisions (Japan SHM-CD)
Жанр: R&B/Soul
Год выпуска диска: 2009
Производитель диска: Japan
Аудио кодек: FLAC
Тип рипа: tracks+.cue
Битрейт аудио: lossless
Трэклист:
1. Too High (4:36)
2. Visions (5:24)
3. Living For The City (7:22)
4. Golden Lady (5:04)
5. Higher Ground (3:42)
6. Jesus Children Of America (4:10)
7. All In Love Is Fair (3:42)
8. Don't You Worry 'Bout A Thing (4:45)
9. He's Misstra Know-It-All (5:37)
 
CD1: XLD Log
X Lossless Decoder version 20100323 (116.7)
XLD extraction logfile from 2010-04-14 12:05:41 +0600
Stevie Wonder / Innervisions
Used drive : OPTIARC DVD RW AD-5670S (revision 2AHH)
Use cdparanoia mode : YES (CDParanoia III 10.2 engine)
Disable audio cache : OK for the drive with cache less than 2750KB
Make use of C2 pointers : NO
Read offset correction : 48
Max retry count : 100
TOC of the extracted CD
Track | Start | Length | Start sector | End sector
---------------------------------------------------------
1 | 00:00:00 | 04:36:50 | 0 | 20749
2 | 04:36:50 | 05:23:20 | 20750 | 44994
3 | 09:59:70 | 07:22:32 | 44995 | 78176
4 | 17:22:27 | 04:59:25 | 78177 | 100626
5 | 22:21:52 | 03:42:13 | 100627 | 117289
6 | 26:03:65 | 04:10:10 | 117290 | 136049
7 | 30:14:00 | 03:41:67 | 136050 | 152691
8 | 33:55:67 | 04:44:63 | 152692 | 174054
9 | 38:40:55 | 05:35:22 | 174055 | 199201
List of alternate offset correction values
# | Absolute | Relative | Confidence
------------------------------------------
1 | -100 | -148 | 1
Track 01
Filename : /Users/gubarenko/Desktop/Stevie Wonder - Innervisions/01 - Too High.flac
Pre-gap length : 00:02:00
CRC32 hash (test run) : 7245DDC9
CRC32 hash : 7245DDC9
CRC32 hash (skip zero) : 8E3E9505
AccurateRip signature : 9AA4F3C8
->Accurately ripped! (confidence 1)
(matched with the different offset correction value;
calculated using an additional offset of -148;
the signature after correction is: 40C38856)
Statistics
Read error : 0
Skipped (treated as error) : 0
Edge jitter error (maybe fixed) : 0
Atom jitter error (maybe fixed) : 0
Drift error (maybe fixed) : 0
Dropped bytes error (maybe fixed) : 0
Duplicated bytes error (maybe fixed) : 0
Inconsistency in error sectors : 0
Track 02
Filename : /Users/gubarenko/Desktop/Stevie Wonder - Innervisions/02 - Visions.flac
CRC32 hash (test run) : 4F806939
CRC32 hash : 4F806939
CRC32 hash (skip zero) : 72DE5B8A
AccurateRip signature : CC912409
->Accurately ripped! (confidence 1)
(matched with the different offset correction value;
calculated using an additional offset of -148;
the signature after correction is: 863AEBAF)
Statistics
Read error : 0
Skipped (treated as error) : 0
Edge jitter error (maybe fixed) : 0
Atom jitter error (maybe fixed) : 0
Drift error (maybe fixed) : 0
Dropped bytes error (maybe fixed) : 0
Duplicated bytes error (maybe fixed) : 0
Inconsistency in error sectors : 0
Track 03
Filename : /Users/gubarenko/Desktop/Stevie Wonder - Innervisions/03 - Living For The City.flac
CRC32 hash (test run) : B6B54DCE
CRC32 hash : B6B54DCE
CRC32 hash (skip zero) : 8CDC4053
AccurateRip signature : F199020E
->Accurately ripped! (confidence 1)
(matched with the different offset correction value;
calculated using an additional offset of -148;
the signature after correction is: 40A5494C)
Statistics
Read error : 0
Skipped (treated as error) : 0
Edge jitter error (maybe fixed) : 0
Atom jitter error (maybe fixed) : 0
Drift error (maybe fixed) : 0
Dropped bytes error (maybe fixed) : 0
Duplicated bytes error (maybe fixed) : 0
Inconsistency in error sectors : 0
Track 04
Filename : /Users/gubarenko/Desktop/Stevie Wonder - Innervisions/04 - Golden Lady.flac
CRC32 hash (test run) : 90F1F7B0
CRC32 hash : 90F1F7B0
CRC32 hash (skip zero) : BFA47A95
AccurateRip signature : 51925177
->Accurately ripped! (confidence 1)
(matched with the different offset correction value;
calculated using an additional offset of -148;
the signature after correction is: 92677935)
Statistics
Read error : 0
Skipped (treated as error) : 0
Edge jitter error (maybe fixed) : 0
Atom jitter error (maybe fixed) : 0
Drift error (maybe fixed) : 0
Dropped bytes error (maybe fixed) : 0
Duplicated bytes error (maybe fixed) : 0
Inconsistency in error sectors : 0
Track 05
Filename : /Users/gubarenko/Desktop/Stevie Wonder - Innervisions/05 - Higher Ground.flac
Pre-gap length : 00:00:42
CRC32 hash (test run) : 123C5BD5
CRC32 hash : 123C5BD5
CRC32 hash (skip zero) : 13EEABC9
AccurateRip signature : 80C64573
->Accurately ripped! (confidence 1)
(matched with the different offset correction value;
calculated using an additional offset of -148;
the signature after correction is: EE9BEDD5)
Statistics
Read error : 0
Skipped (treated as error) : 0
Edge jitter error (maybe fixed) : 0
Atom jitter error (maybe fixed) : 0
Drift error (maybe fixed) : 0
Dropped bytes error (maybe fixed) : 0
Duplicated bytes error (maybe fixed) : 0
Inconsistency in error sectors : 0
Track 06
Filename : /Users/gubarenko/Desktop/Stevie Wonder - Innervisions/06 - Jesus Children Of America.flac
CRC32 hash (test run) : 64E171AC
CRC32 hash : 64E171AC
CRC32 hash (skip zero) : 16A9B35F
AccurateRip signature : 06D6C71F
->Accurately ripped! (confidence 1)
(matched with the different offset correction value;
calculated using an additional offset of -148;
the signature after correction is: A0C9CD24)
Statistics
Read error : 0
Skipped (treated as error) : 0
Edge jitter error (maybe fixed) : 0
Atom jitter error (maybe fixed) : 0
Drift error (maybe fixed) : 0
Dropped bytes error (maybe fixed) : 0
Duplicated bytes error (maybe fixed) : 0
Inconsistency in error sectors : 0
Track 07
Filename : /Users/gubarenko/Desktop/Stevie Wonder - Innervisions/07 - All In Love Is Fair.flac
CRC32 hash (test run) : C353E4BF
CRC32 hash : C353E4BF
CRC32 hash (skip zero) : 6A1A351D
AccurateRip signature : F4842952
->Accurately ripped! (confidence 1)
(matched with the different offset correction value;
calculated using an additional offset of -148;
the signature after correction is: E26503FA)
Statistics
Read error : 0
Skipped (treated as error) : 0
Edge jitter error (maybe fixed) : 0
Atom jitter error (maybe fixed) : 0
Drift error (maybe fixed) : 0
Dropped bytes error (maybe fixed) : 0
Duplicated bytes error (maybe fixed) : 0
Inconsistency in error sectors : 0
Track 08
Filename : /Users/gubarenko/Desktop/Stevie Wonder - Innervisions/08 - Don't You Worry 'Bout A Thing.flac
CRC32 hash (test run) : BB6A1FD0
CRC32 hash : BB6A1FD0
CRC32 hash (skip zero) : 20FCF216
AccurateRip signature : BEE20071
->Accurately ripped! (confidence 1)
(matched with the different offset correction value;
calculated using an additional offset of -148;
the signature after correction is: BB4F08A8)
Statistics
Read error : 0
Skipped (treated as error) : 0
Edge jitter error (maybe fixed) : 0
Atom jitter error (maybe fixed) : 0
Drift error (maybe fixed) : 0
Dropped bytes error (maybe fixed) : 0
Duplicated bytes error (maybe fixed) : 0
Inconsistency in error sectors : 0
Track 09
Filename : /Users/gubarenko/Desktop/Stevie Wonder - Innervisions/09 - He's Misstra Know-It-All.flac
CRC32 hash (test run) : 6F17E936
CRC32 hash : 6F17E936
CRC32 hash (skip zero) : 0404F074
AccurateRip signature : 73196543
->Accurately ripped! (confidence 1)
(matched with the different offset correction value;
calculated using an additional offset of -148;
the signature after correction is: 2A68F191)
Statistics
Read error : 0
Skipped (treated as error) : 0
Edge jitter error (maybe fixed) : 0
Atom jitter error (maybe fixed) : 0
Drift error (maybe fixed) : 0
Dropped bytes error (maybe fixed) : 0
Duplicated bytes error (maybe fixed) : 0
Inconsistency in error sectors : 0
No errors occurred
End of status report
 
CD1: CUE
TITLE "Innervisions"
PERFORMER "Stevie Wonder"
CATALOG 4988005250025
REM GENRE "R&B"
REM DATE 1973
FILE "01 - Too High.wav" WAVE
TRACK 01 AUDIO
TITLE "Too High"
ISRC USUMG9900461
INDEX 01 00:00:00
FILE "02 - Visions.wav" WAVE
TRACK 02 AUDIO
TITLE "Visions"
ISRC USUMG9900462
INDEX 01 00:00:00
FILE "03 - Living For The City.wav" WAVE
TRACK 03 AUDIO
TITLE "Living For The City"
ISRC USMO17382638
INDEX 01 00:00:00
FILE "04 - Golden Lady.wav" WAVE
TRACK 04 AUDIO
TITLE "Golden Lady"
ISRC USMO17384739
INDEX 01 00:00:00
TRACK 05 AUDIO
TITLE "Higher Ground"
ISRC USMO17382652
INDEX 00 04:58:58
FILE "05 - Higher Ground.wav" WAVE
INDEX 01 00:00:00
FILE "06 - Jesus Children Of America.wav" WAVE
TRACK 06 AUDIO
TITLE "Jesus Children Of America"
ISRC USUMG0000217
INDEX 01 00:00:00
FILE "07 - All In Love Is Fair.wav" WAVE
TRACK 07 AUDIO
TITLE "All In Love Is Fair"
ISRC USMO17382643
INDEX 01 00:00:00
FILE "08 - Don't You Worry 'Bout A Thing.wav" WAVE
TRACK 08 AUDIO
TITLE "Don't You Worry 'Bout A Thing"
ISRC USUMG9900463
INDEX 01 00:00:00
FILE "09 - He's Misstra Know-It-All.wav" WAVE
TRACK 09 AUDIO
TITLE "He's Misstra Know-It-All"
ISRC USMO17382778
INDEX 01 00:00:00
 
UICY-93934
Диск куплен тут.
 
Stevie Wonder SHM-CD Cardboard Sleeve Reissues (Universal)
UICY-93863: The Jazz Soul Of Little Stevie
UICY-93864: Tribute To Uncle Ray
UICY-93865: Recorded Live: The 12 Year Old Genius
UICY-93866: With a Song In My Heart
UICY-93867: Stevie At The Beach
UICY-93868: Up-Tight
UICY-93869: Down To Earth
UICY-93870: I Was Made To Love Her
UICY-93871: Someday At Christmas
UICY-93872: Greatest Hits
UICY-93873: Eivets Rednow
UICY-93874: For Once In My Life
UICY-93875: My Cherie Amour
UICY-93929: Signed, Sealed and Delivered
UICY-93930: Stevie Wonder Live
UICY-93931: Where I'm Coming From
UICY-93932: Music Of My Mind
UICY-93933: Talking Book
UICY-93934: Innervisions
UICY-93935: Fulfillingness' First Finale
UICY-93936/7: Songs In The Key Of Life
UICY-93938/9: Journey Through The Secret Life Of Plants
UICY-93940: Hotter Than July
UICY-93986/7: Original Musicquarium
UICY-93942: Woman In Red
UICY-93943: In Square Circle
UICY-93944: Characters
UICY-93945: Jungle Fever
UICY-93946: Conversation Peace
UICY-93947/8: Natural Wonder
* мои раздачи, чужие, скоро будет
* mine, others, soon
Приватный:
Да (DHT отключён)
Размер:
382.54 Мб (401,118,617 байт) » файлов: 15
Участники:
0 раздают, 0 качают (0 участников всего)
Внешние участники:
8 раздают, 2 качают (10 участников всего) [ Обновить ]
Никого нет на раздаче - пишите личное сообщение M0p94ok
No seeders - write personal message to M0p94ok
04:13
28
Нет комментариев. Ваш будет первым!